<?xml version="1.0" standalone="no"?>
<!DOCTYPE svg PUBLIC "-//W3C//DTD SVG 1.1//EN" "http://www.w3.org/Graphics/SVG/1.1/DTD/svg11.dtd" >
<svg>
<metadata>
Created by FontForge 20110222 at Wed Dec  9 11:35:52 2015
 By www-data
Digitized data (c) Copyright 1997 E+F Designstudios. ITC American Typewriter is a registered trademark of International Typeface Corporation.
</metadata>
<defs>
<font id="AmericanTypewriter-Light" horiz-adv-x="619" >
  <font-face 
    font-family="American Typewriter"
    font-weight="300"
    font-stretch="normal"
    units-per-em="1000"
    panose-1="2 9 3 4 2 0 4 2 3 4"
    ascent="800"
    descent="-200"
    x-height="490"
    cap-height="671"
    bbox="-455 -250 1149 889"
    underline-thickness="20"
    underline-position="-156"
    unicode-range="U+0008-FB02"
  />
<missing-glyph horiz-adv-x="500" 
d="M63 0v758h375v-758h-375zM125 63h250v633h-250v-633z" />
    <glyph glyph-name="fi" unicode="fi" horiz-adv-x="601" 
d="M276 -5l-35 3l-41 3l-29 1h-19l-28 -1l-42 -3l-35 -3h-3q-19 0 -19 12q0 13 22 13h5q7 0 21.5 -1t21.5 -1q38 0 46 24t8 141v258q0 27 -18 27q-10 0 -32 -2t-29 -2q-23 0 -23 14q0 12 18 12q10 0 30.5 -1.5t31.5 -1.5q16 0 19.5 5t4.5 27q5 169 180 169q67 0 109.5 -24
t42.5 -62q0 -43 -40 -43q-33 0 -33 32q0 31 27 31q8 0 8 5q0 11 -32 25q-38 16 -86 16q-151 0 -151 -162q0 -14 3 -16.5t31 -2.5h188q20 0 46 2q6 1 11 1q16 0 16 -20v-10q-1 -11 -1 -21v-256q0 -117 8 -141t46 -24q7 0 21.5 1t21.5 1h4q22 0 22 -12q0 -13 -18 -13h-4l-35 3
l-41 3l-28 1h-20l-28 -1l-41 -3l-35 -3h-4q-18 0 -18 12q0 13 21 13h5q1 0 22.5 -1t20.5 -1q38 0 46 24t8 141v157q0 72 0 63q-2 52 -15 60q-8 5 -31 5h-185q-27 0 -30 -1t-4 -4q-4 -4 -4 -22v-258q0 -117 8 -141t46 -24q7 0 21 1t21 1h5q22 0 22 -12q0 -13 -18 -13
q-5 0 -4 0z" />
    <glyph glyph-name="fl" unicode="fl" horiz-adv-x="601" 
d="M276 -5l-35 3l-41 3l-29 1h-19l-28 -1l-42 -3l-35 -3h-3q-19 0 -19 12q0 13 22 13h5q7 0 21.5 -1t21.5 -1q38 0 46 24t8 141v258q0 27 -18 27q-9 0 -32 -2t-29 -2q-23 0 -23 14q0 12 18 12q10 0 31 -2q11 -1 24 -1q22 0 26 4.5t5 27.5q5 119 84 155q31 14 76 14
q30 0 81 -5q30 -3 40 -3h20q9 0 14 -4t5 -26q0 -7 -1 -11v-456q0 -116 8 -140.5t47 -24.5q7 0 21 1t21 1h5q21 0 21 -12q0 -13 -18 -13h-3l-35 3l-41 3l-29 1h-20l-29 -1l-41 -3l-35 -3h-3q-18 0 -18 12q0 13 21 13h5q7 0 21 -1t21 -1q39 0 47 24t8 141v349q0 79 -3.5 99.5
t-17.5 25.5q-29 11 -104 11q-76 0 -110 -37t-34 -120q0 -17 3.5 -21t20.5 -4q12 0 65 3q18 1 38 1q25 0 25 -13t-26 -13h-3l-38 2l-47 2q-24 1 -18 1q-20 0 -20 -28v-258q0 -117 8 -141t46 -24q7 0 21 1t21 1h5q22 0 22 -12q0 -13 -18 -13q-5 0 -4 0z" />
    <glyph glyph-name=".notdef" horiz-adv-x="500" 
d="M63 0v758h375v-758h-375zM125 63h250v633h-250v-633z" />
    <glyph glyph-name=".null" horiz-adv-x="0" 
 />
    <glyph glyph-name="uniE002" horiz-adv-x="250" 
 />
    <glyph glyph-name="space" unicode=" " horiz-adv-x="250" 
 />
    <glyph glyph-name="controlNULL" horiz-adv-x="0" 
 />
    <glyph glyph-name="controlNULL" horiz-adv-x="0" 
 />
    <glyph glyph-name="controlBS" horiz-adv-x="0" 
 />
    <glyph glyph-name="controlHT" unicode="&#x9;" horiz-adv-x="250" 
 />
    <glyph glyph-name="controlCR" unicode="&#xd;" horiz-adv-x="250" 
 />
    <glyph glyph-name="controlGS" horiz-adv-x="0" 
 />
    <glyph glyph-name="exclam" unicode="!" horiz-adv-x="419" 
d="M209 686q17 0 17 -28l-4 -510q0 -25 -13 -25q-14 0 -14 25l-4 510q0 28 18 28zM209 85q20 0 33.5 -14t13.5 -34t-14 -34t-33 -14q-20 0 -33.5 14t-13.5 34t13.5 34t33.5 14z" />
    <glyph glyph-name="quotedbl" unicode="&#x22;" horiz-adv-x="258" 
d="M90 667l-4 -269h-19l-3 269h26zM195 667l-4 -269h-19l-4 269h27z" />
    <glyph glyph-name="numbersign" unicode="#" horiz-adv-x="600" 
d="M407 252h116l-3 -24h-118l-33 -228h-26l34 228h-177l-34 -228h-25l34 228h-121l4 24h120l27 176h-121l4 24h120l32 215h26l-32 -215h177l32 215h26l-33 -215h117l-4 -24h-116zM381 252l26 176h-177l-26 -176h177z" />
    <glyph glyph-name="dollar" unicode="$" 
d="M334 760v-100q89 -6 137 -42q58 -44 58 -104q0 -23 -13.5 -38t-34.5 -15q-33 0 -33 31q0 22 21 31t21 22q0 36 -43.5 61t-112.5 30v-279q67 -12 99 -24q105 -38 105 -147q0 -96 -81 -145q-47 -29 -123 -36v-83q0 -29 -13 -29t-13 31v80q-66 5 -101.5 17.5t-70.5 42.5
q-55 48 -55 104q0 27 13 44t34 17q16 0 27 -10t11 -25q0 -32 -33 -32h-5q-15 0 -15 -15q0 -38 52 -76t143 -45v309q-104 21 -149 57t-45 99q0 59 40.5 104t105.5 59q17 3 48 6v97q0 25 14 25q12 0 12 -22zM334 331v-304q69 8 107 32q70 43 70 129q0 84 -76 116
q-33 14 -73 22q-13 3 -28 5zM308 362v273q-62 -3 -97 -24q-70 -43 -70 -121q0 -49 31.5 -77t108.5 -45z" />
    <glyph glyph-name="percent" unicode="%" horiz-adv-x="801" 
d="M437 557q-60 0 -112 43q20 -60 20 -113q0 -91 -43 -146t-113 -55t-112 53.5t-42 140.5q0 93 44 149.5t116 56.5q56 0 116 -50q37 -31 62.5 -41.5t62.5 -10.5q46 0 91.5 25t67.5 62q10 17 20 17q15 0 15 -14q0 -10 -12 -27l-22 -32l-30 -47l-60 -96l-112 -177l-178 -295
q-9 -16 -21 -16q-16 0 -16 14q0 9 28 52l70 107l92 145l157 257q6 11 21 37q-61 -39 -110 -39zM614 382q70 0 111.5 -54t41.5 -143q0 -90 -44.5 -147t-114.5 -57q-68 0 -110 52.5t-42 138.5q0 93 44 151.5t114 58.5zM187 308q60 0 94.5 49t34.5 135q0 81 -33 126.5t-92 45.5
t-93.5 -51t-34.5 -136q0 -78 33.5 -123.5t90.5 -45.5zM608 2q61 0 95.5 49t34.5 137q0 80 -33 126t-90 46q-60 0 -95.5 -51.5t-35.5 -138.5q0 -78 33.5 -123t90.5 -45z" />
    <glyph glyph-name="ampersand" unicode="&#x26;" horiz-adv-x="819" 
d="M473 142q-6 -13 -13 -26q58 -57 104.5 -75.5t112.5 -18.5q11 0 32 1t32 1q29 0 29 -14q0 -15 -60 -15q-99 0 -154 19q-47 16 -112 76q-49 -64 -100 -85q-40 -16 -86 -16q-88 0 -144 52t-56 133q0 89 67 154q36 35 109 76q-57 106 -57 168q0 54 37 89t93 35q53 0 87 -32.5
t34 -81.5q0 -70 -70 -125q-19 -15 -86 -58q37 -70 64 -114q43 -71 106 -148q20 41 45 128q36 122 66 168q43 64 120 64q53 0 87.5 -33t34.5 -83q0 -43 -27.5 -73t-68.5 -30q-28 0 -46.5 15.5t-18.5 38.5q0 33 28 33q21 0 21 -21q0 -11 -13 -17q-6 -3 -6 -6q0 -9 20 -16
q12 -2 17 -2q28 0 47.5 23t19.5 55q0 41 -27 66.5t-70 25.5q-80 0 -119 -92q-14 -33 -31 -91q-35 -120 -48 -148zM210 575q0 -59 50 -155q139 76 139 164q0 41 -25 66t-67 25q-45 0 -71 -27t-26 -73zM312 264q-30 47 -68 118q-65 -36 -98 -69q-55 -56 -55 -134
q0 -73 47.5 -119.5t122.5 -46.5q100 0 165 97q-66 79 -114 154z" />
    <glyph glyph-name="quotesingle" unicode="'" horiz-adv-x="154" 
d="M90 667l-4 -269h-18l-4 269h26z" />
    <glyph glyph-name="parenleft" unicode="(" horiz-adv-x="382" 
d="M226 -129q-86 70 -132.5 167t-46.5 205q0 125 62 234.5t171 177.5q50 31 67 31q9 0 9 -8q0 -6 -22 -17q-107 -54 -180 -166.5t-73 -251.5q0 -217 176 -365q41 -34 77 -52q22 -11 22 -17q0 -8 -9 -8q-8 0 -37 14q-38 19 -84 56z" />
    <glyph glyph-name="parenright" unicode=")" horiz-adv-x="382" 
d="M157 616q179 -150 179 -373q0 -125 -62 -234t-171 -177q-50 -31 -68 -31q-8 0 -8 8q0 6 21 17q109 55 182 168q71 110 71 249q0 218 -175 366q-38 32 -78 52q-21 10 -21 17q0 8 9 8q8 0 36 -14q45 -22 85 -56z" />
    <glyph glyph-name="asterisk" unicode="*" 
d="M439 571l-14 -6l-75 -35q-17 -8 -17 -16t17 -16l89 -42q13 -5 13 -19t-16 -14q-12 0 -28 12l-66 48q-14 10 -18 10q-8 0 -8 -12q0 -3 1 -12l9 -79q1 -9 1 -15q0 -20 -17 -20q-18 0 -18 20q0 1 1 6v9l9 79q1 9 1 13q0 11 -8 11q-4 0 -18 -10l-66 -48q-17 -12 -27 -12
q-17 0 -17 14t27 26l76 35q17 8 17 16t-17 16l-76 35q-27 12 -27 25q0 15 17 15q11 0 27 -12l66 -49q12 -9 18 -9q8 0 8 11q0 4 -1 13l-9 78v9q-1 5 -1 7q0 20 18 20q17 0 17 -20q0 -7 -1 -16l-9 -78q-1 -9 -1 -12q0 -12 8 -12q6 0 18 9l66 49q16 12 28 12q16 0 16 -14
q0 -13 -13 -20z" />
    <glyph glyph-name="plus" unicode="+" horiz-adv-x="500" 
d="M33 315v24h205v186h25v-186h204v-24h-204v-185h-25v185h-205z" />
    <glyph glyph-name="comma" unicode="," horiz-adv-x="218" 
d="M90 -206q-14 0 -14 12q0 2 5 10q2 2 21 28q41 56 41 115q0 32 -17 32q-8 0 -13 -2q-12 -2 -13 -2q-16 0 -28 13t-12 30q0 21 14.5 35t35.5 14q61 0 61 -90q0 -85 -58 -170q-17 -25 -23 -25z" />
    <glyph glyph-name="hyphen" unicode="-" horiz-adv-x="382" 
d="M346 258q0 -15 -29 -15h-255q-26 0 -26 16q0 15 28 15h253q29 0 29 -16z" />
    <glyph glyph-name="hyphen" unicode="&#x2010;" horiz-adv-x="382" 
d="M346 258q0 -15 -29 -15h-255q-26 0 -26 16q0 15 28 15h253q29 0 29 -16z" />
    <glyph glyph-name="period" unicode="." horiz-adv-x="218" 
d="M108 82q20 0 34.5 -13.5t14.5 -32.5q0 -20 -14 -33.5t-34 -13.5t-34 14t-14 33t13.5 32.5t33.5 13.5z" />
    <glyph glyph-name="slash" unicode="/" horiz-adv-x="400" 
d="M176 239q-40 -100 -140 -365l-12 -32q-13 -35 -27 -35q-17 0 -17 15q0 10 22 63l230 571q55 140 64 165q16 45 21 55t15 10q15 0 15 -16q0 -8 -6 -21q-3 -6 -17 -43q-19 -49 -59 -148z" />
    <glyph glyph-name="zero" unicode="0" 
d="M311 686q123 0 193.5 -95t70.5 -261q0 -161 -72 -255t-194 -94q-123 0 -194 94t-71 257q0 162 72.5 258t194.5 96zM308 3q113 0 175.5 87t62.5 247q0 155 -62.5 240.5t-176.5 85.5q-109 0 -171.5 -89.5t-62.5 -245.5q0 -154 62 -239.5t173 -85.5z" />
    <glyph glyph-name="one" unicode="1" 
d="M305 673q15 0 19 -14q1 -5 1 -26v-404q0 -48 1 -81l2 -69q0 -35 12.5 -49.5t42.5 -14.5q1 0 11.5 1t27.5 2t24 1q25 0 25 -14q0 -12 -19 -12q-7 0 -47 4q-80 8 -103 8q-45 0 -90 -6q-37 -5 -41 -5q-23 0 -23 14q0 13 22 13q12 0 26.5 -2t36.5 -2q36 0 49.5 15.5
t13.5 57.5q0 38 1 68.5t1 73.5v295q0 86 -9 105.5t-48 19.5q-7 0 -37 -2q-15 -1 -30 -1q-24 0 -24 14q0 13 19 13q3 0 5 -1l27 -4q20 -3 50 -3q5 0 12 1h8q27 4 34 4z" />
    <glyph glyph-name="two" unicode="2" 
d="M71 71q0 -2 2 -20q38 79 129 79q62 0 123 -55q46 -41 56 -48q28 -23 64 -23q40 0 70 31.5t30 73.5q0 30 -15 52q-3 7 -8 7q-3 0 -10.5 -9.5t-17.5 -9.5q-23 0 -23 23q0 12 10.5 20.5t24.5 8.5q25 0 43 -27t18 -64q0 -54 -36 -91.5t-87 -37.5q-32 0 -57 13.5t-71 55.5
q-59 53 -119 53q-80 0 -109 -58q-2 -8 -2 -9q0 -6 4 -6q1 0 3 1t8 1q23 0 23 -23q0 -25 -28 -25q-44 0 -44 78q0 102 72 166q55 49 177 84q91 27 122.5 42.5t52.5 45.5q26 37 26 92q0 80 -52.5 125.5t-146.5 45.5q-164 0 -209 -115q-9 -23 -9 -41q0 -21 12 -21q3 0 10.5 4.5
t12.5 4.5q29 0 29 -32q0 -15 -11.5 -25.5t-27.5 -10.5q-49 0 -49 66q0 84 69 138.5t175 54.5q101 0 161.5 -52t60.5 -138q0 -126 -115 -170q-45 -17 -112 -36q-97 -27 -149.5 -68t-71.5 -105q-8 -27 -8 -46z" />
    <glyph glyph-name="three" unicode="3" 
d="M509 615l-212 -209q22 6 49 6q99 0 155 -52t56 -143q0 -106 -71 -171t-187 -65q-103 0 -170.5 49.5t-67.5 125.5q0 33 19 56.5t45 23.5q38 0 38 -33q0 -30 -28 -30q-5 0 -14 4.5t-15 4.5q-20 0 -20 -36q0 -58 60.5 -100t143.5 -42q110 0 173.5 57t63.5 154
q0 85 -46 130.5t-132 45.5q-59 0 -92 -19q-7 -4 -12 -4q-8 0 -8 9q0 5 3 8l9 8l232 226q14 14 14 18t-14 4h-323q-41 0 -45 -23q-1 -8 -1 -24q0 -47 4 -81q1 -11 3 -32v-2q0 -22 -15 -22q-13 0 -13 16l1 2l3 41q1 14 1 33q0 25 -2 50t-2 39q0 27 24 26l32 -1h341q34 0 39 -7
q2 -4 2 -10q0 -10 -21 -31z" />
    <glyph glyph-name="four" unicode="4" 
d="M566 204h-114q-15 0 -18.5 -3.5t-3.5 -18.5v-107q0 -35 9.5 -47t42.5 -12h5l26 1h26q20 0 20 -11q0 -13 -22 -13q-15 0 -41 3l-40 4q-34 2 -44 2q-11 0 -45 -2q-24 -2 -71 -7h-2q-21 0 -21 13q0 12 22 12q9 0 28 -1.5t29 -1.5q30 0 39.5 12t11.5 52l1 26v77q0 15 -4 18.5
t-19 3.5h-310q-40 0 -40 18q0 11 16 31l325 401q25 31 40 31q18 0 18 -27v-409q0 -15 3 -18.5t14 -3.5h5l83 2q4 1 11 1.5t10 0.5h5q24 0 24 -13q0 -14 -19 -14zM381 226q16 0 19.5 3.5t3.5 18.5v387q0 13 -5 13q-3 0 -8 -6l-323 -402q-6 -7 -6 -10q0 -4 12 -4h307z" />
    <glyph glyph-name="five" unicode="5" 
d="M95 342l36 302q3 21 22 20l16 -1l310 1q15 1 17 -33q1 -16 5 -33l7 -29q2 -5 2 -14q0 -14 -10 -14q-12 0 -14 21l-3 34q-3 30 -17 38q-10 7 -42 7h-249q-17 0 -20 -13q0 2 -2 -14l-33 -264q0 -5 3 -5t8 5q30 37 82.5 58.5t111.5 21.5q104 0 167 -58t63 -155
q0 -105 -70 -170.5t-182 -65.5q-102 0 -170.5 49.5t-68.5 123.5q0 34 17.5 56t44.5 22q37 0 37 -33q0 -30 -29 -30q-11 0 -23 10q-2 1 -4 1q-19 0 -19 -31q0 -61 60.5 -103.5t146.5 -42.5q107 0 169 57t62 154q0 90 -53.5 141.5t-146.5 51.5q-54 0 -104.5 -20.5t-78.5 -53.5
q-19 -23 -32 -23q-17 0 -17 21q0 7 1 11z" />
    <glyph glyph-name="six" unicode="6" 
d="M87 299q0 -30 5 -71q12 54 24.5 80.5t37.5 52.5q65 68 177 68q103 0 166.5 -58t63.5 -153q0 -103 -68.5 -170t-172.5 -67q-122 0 -192 87.5t-70 241.5q0 168 79.5 272t208.5 104q84 0 139.5 -42t55.5 -105q0 -64 -51 -64q-35 0 -35 31q0 29 26 29q5 0 12 -4q3 -2 8 -2
q10 0 10 24q0 46 -48 78t-118 32q-119 0 -188.5 -97.5t-69.5 -266.5zM320 3q93 0 152 60t59 154q0 85 -53.5 137t-142.5 52q-100 0 -162 -58.5t-62 -152.5q0 -84 59 -138t150 -54z" />
    <glyph glyph-name="seven" unicode="7" 
d="M452 469q59 58 67 124q-40 -52 -88 -52q-47 0 -114 69q-44 46 -84 46q-54 0 -94 -50.5t-40 -118.5q0 -12 1 -26q2 -28 2 -26q0 -27 -16 -27q-15 0 -15 22q0 3 7 43q4 23 4 70q0 49 -2 85t-2 28q0 21 14 21q13 0 13 -21v-4l-4 -28v-22l-1 -18q43 95 135 95q30 0 51.5 -11
t57.5 -46q59 -56 94 -56q30 0 56 27q16 17 16 27q0 3 -5 5q-20 8 -20 24q0 26 27 26q15 0 25 -15t10 -37q0 -75 -53 -140q-20 -24 -76 -81q-73 -74 -106 -140t-37 -148q-2 -38 -2 -95v-6q0 -27 -18 -27q-20 0 -20 31q0 115 28 200q32 97 119 183z" />
    <glyph glyph-name="eight" unicode="8" 
d="M135 350q37 26 97 44q-129 35 -129 135q0 69 58 113t148 44t148 -43.5t58 -111.5q0 -103 -128 -137q62 -18 97 -44q79 -57 79 -155q0 -96 -70.5 -155t-183.5 -59t-183 59.5t-70 154.5q0 100 79 155zM85 193q0 -86 61.5 -138t162.5 -52q102 0 163.5 52t61.5 138t-62 138
t-163 52t-162.5 -52.5t-61.5 -137.5zM133 535q0 -56 50 -93.5t126 -37.5t126.5 37.5t50.5 93.5t-49.5 92t-127.5 36t-127 -35.5t-49 -92.5z" />
    <glyph glyph-name="nine" unicode="9" 
d="M532 372q0 28 -5 67q-17 -87 -62 -133q-66 -68 -177 -68q-103 0 -166.5 58t-63.5 153q0 103 68 170t173 67q122 0 192 -87.5t70 -241.5q0 -168 -79.5 -272t-207.5 -104q-85 0 -140.5 42t-55.5 105q0 65 51 65q35 0 35 -32q0 -11 -7.5 -20t-17.5 -9q-6 0 -12.5 3.5
t-7.5 3.5q-12 0 -12 -26q0 -46 49 -78t119 -32q119 0 188 98.5t69 270.5zM299 663q-94 0 -153 -59.5t-59 -154.5q0 -85 54 -136.5t143 -51.5q100 0 161.5 58.5t61.5 152.5q0 84 -58.5 137.5t-149.5 53.5z" />
    <glyph glyph-name="colon" unicode=":" horiz-adv-x="218" 
d="M108 82q20 0 34.5 -13.5t14.5 -32.5q0 -20 -14 -33.5t-34 -13.5t-34 14t-14 33t13.5 32.5t33.5 13.5zM108 500q20 0 34.5 -13.5t14.5 -32.5t-14 -33t-34 -14t-34 14t-14 33t13.5 32.5t33.5 13.5z" />
    <glyph glyph-name="semicolon" unicode=";" horiz-adv-x="218" 
d="M90 -206q-14 0 -14 12q0 2 5 10q2 2 21 28q41 56 41 115q0 32 -17 32q-8 0 -13 -2q-12 -2 -13 -2q-16 0 -28 13t-12 30q0 21 14.5 35t35.5 14q61 0 61 -90q0 -85 -58 -170q-17 -25 -23 -25zM108 500q20 0 34.5 -13.5t14.5 -32.5t-14 -33t-34 -14t-34 14t-14 33t13.5 32.5
t33.5 13.5z" />
    <glyph glyph-name="less" unicode="&#x3c;" horiz-adv-x="500" 
d="M33 340l434 187v-26l-405 -174l405 -174v-26l-434 188v25z" />
    <glyph glyph-name="equal" unicode="=" horiz-adv-x="500" 
d="M33 399v24h434v-24h-434zM33 264v23h434v-23h-434z" />
    <glyph glyph-name="greater" unicode="&#x3e;" horiz-adv-x="500" 
d="M467 314l-434 -187v26l405 174l-405 174v26l434 -188v-25z" />
    <glyph glyph-name="question" unicode="?" horiz-adv-x="564" 
d="M157 452v1l-5 11q-2 2 -2 8q0 13 9 22t21 9q13 0 23 -10.5t10 -24.5q0 -22 -17.5 -36.5t-45.5 -14.5q-40 0 -66 27t-26 69q0 76 67.5 124.5t171.5 48.5t165.5 -47.5t61.5 -126.5q0 -90 -76 -138q-34 -21 -80 -42q-66 -29 -85.5 -58.5t-19.5 -99.5v-11q0 -1 1 -3v-4
q0 -27 -15 -27q-16 0 -16 36q0 73 18 108q21 40 95 75q70 33 97 55t41 56q10 25 10 53q0 70 -53 111t-145 41t-151 -42.5t-59 -109.5q0 -29 16 -50t38 -21q17 0 17 11zM251 85q20 0 33.5 -14t13.5 -34t-14 -34t-34 -14q-19 0 -33 14t-14 34t14 34t34 14z" />
    <glyph glyph-name="at" unicode="@" horiz-adv-x="673" 
d="M362 516q66 0 97 -66q2 6 5 16q5 15 5 19q7 22 18 22q13 0 13 -14q0 -6 -3 -15l-7 -20l-4 -15l-45 -144q-13 -42 -13 -68q0 -36 20.5 -61t50.5 -25q61 0 108 97q30 63 30 140q0 110 -76 179t-197 69q-140 0 -237.5 -102t-97.5 -250q0 -112 67 -177.5t180 -65.5
q69 0 123 35q8 5 12 5t8 -3t4 -8q0 -20 -46 -36t-104 -16q-124 0 -197 72t-73 195q0 157 105.5 265t258.5 108q131 0 213.5 -77.5t82.5 -201.5q0 -95 -50.5 -172.5t-112.5 -77.5q-78 0 -95 94q-62 -90 -133 -90q-48 0 -79 38.5t-31 97.5q0 95 64 176q61 77 136 77zM188 269
v-4q0 -50 25 -83t63 -33q62 0 109 88q21 39 43 112q13 43 13 63q0 35 -23.5 58t-60.5 23q-61 0 -115 -74t-54 -150z" />
    <glyph glyph-name="A" unicode="A" horiz-adv-x="728" 
d="M133 90l13 35l199 511q13 34 29 34q17 0 28 -29l148 -408q54 -149 74 -185q14 -26 42 -26q7 0 20 1t20 1q23 0 23 -12q0 -7 -6.5 -11t-15.5 -4q-13 0 -33 3q-33 5 -74 5q-40 0 -62 -3l-44 -6h-5q-27 0 -27 14q0 15 25 15q1 0 28 -2t30 -2q39 0 39 30q0 14 -9 39l-19 52
l-34 89q-2 6 -8 15q-3 2 -16 2h-258q-13 0 -16.5 -2t-8.5 -15l-54 -139q-3 -9 -8 -21q-4 -8 -4 -19q0 -30 51 -30q9 0 30 1q6 1 20 1h1q23 0 23 -12q0 -13 -21 -13q-4 0 -44.5 3t-86.5 3q-39 0 -67 -4t-36 -4q-20 0 -20 14t21 14q7 0 20 -1.5t20 -1.5q48 0 73 68zM499 295
l-126 342l-133 -342q-4 -10 -4 -15q0 -12 22 -12h223q22 0 22 12q0 4 -4 15z" />
    <glyph glyph-name="B" unicode="B" horiz-adv-x="692" 
d="M529 397q-24 -14 -65 -28q163 -33 163 -184q0 -96 -66 -146q-55 -42 -161 -42q-36 0 -83 2l-69 3q-45 2 -61 2h-28q-17 0 -52 -4t-51 -4h-4q-21 0 -21 12q0 15 22 15q1 0 24 -2t32 -2q30 0 40 20q7 13 8 48l2 75l-2 418q-1 35 -7 48q-11 20 -41 20q-8 0 -32 -2
q-12 -1 -24 -1q-22 0 -22 13t21 13h4l22 -2q14 0 40.5 -3t40.5 -3h28q15 0 83 4t117 4q100 0 149 -32q62 -41 62 -117q0 -85 -69 -125zM187 421q0 -36 19 -42q10 -3 32 -3h92q69 0 94 3q52 7 88 32q55 37 55 106q0 70 -58 106q-40 25 -125 25q-45 0 -86 -2l-62 -3
q-34 -2 -41.5 -10.5t-7.5 -48.5v-163zM188 73q0 -32 15 -40q10 -6 49 -8l64 -4q32 -2 56 -2q60 0 87 4q48 8 79 33q58 48 58 133q0 139 -141 161q-45 7 -102 7h-19q-15 -1 -20 -1l-64 -1q-23 0 -30 -1q-21 -2 -26 -8t-7 -21z" />
    <glyph glyph-name="C" unicode="C" horiz-adv-x="637" 
d="M539 570l6 -13v16l-2 30v27l-1 3q0 29 15 29q12 0 12 -16q0 -8 -2 -38q-5 -76 -5 -113q0 -49 2 -69q3 -30 3 -31q0 -18 -13 -18q-15 0 -15 23q0 17 1 31q2 27 2 32q0 91 -56 145.5t-149 54.5q-126 0 -190 -94q-68 -99 -68 -246q0 -150 69 -235t191 -85q98 0 156 54.5
t62 149.5q2 40 17 40t15 -20q0 -109 -71 -177.5t-183 -68.5q-133 0 -209.5 94.5t-76.5 258.5q0 159 79 255.5t210 96.5q98 0 156 -54q19 -18 45 -62z" />
    <glyph glyph-name="D" unicode="D" horiz-adv-x="728" 
d="M187 4h-28q-17 0 -53 -4t-51 -4h-3q-21 0 -21 12q0 15 21 15q3 0 25 -2t31 -2q31 0 41 20q7 13 8 48l2 75l-2 418q-1 35 -8 48q-10 20 -41 20q-9 0 -27.5 -1.5t-27.5 -1.5q-22 0 -22 13t21 13h3l23 -2q69 -6 81 -6h28q11 0 86 5q45 3 81 3q91 0 146.5 -19.5t94.5 -63.5
q85 -97 85 -257q0 -123 -54 -210.5t-143 -110.5q-54 -14 -132 -14q-28 0 -82.5 4t-81.5 4zM343 648q-37 0 -55 -2l-53 -6q-25 -3 -33.5 -9t-10.5 -22q-4 -37 -4 -89v-441q0 -41 25.5 -51t132.5 -10q88 0 136 15q70 22 114 86q54 78 54 205q0 123 -42.5 202t-121.5 103
q-61 19 -142 19z" />
    <glyph glyph-name="E" unicode="E" horiz-adv-x="674" 
d="M549 -4l-87 3l-128 1l-112 3h-61l-28 1q-7 0 -22 -1q-9 0 -29 -2l-25 -2h-4q-28 0 -28 15q0 16 25 16q4 0 6 -1l27 -3q18 -2 33 -2q30 0 38 24q4 11 4 50v8q0 6 1 63v71v189v71l-1 71q0 40 -4 50q-7 24 -38 24q-15 0 -33 -2l-27 -3h-5q-26 0 -26 15q0 14 27 14q6 0 5 0
q60 -4 77 -4l328 1l86 5h6q33 0 33 -31q0 -10 -1 -39t-1 -66q0 -59 3 -91v-6q0 -35 -15 -35t-15 30v8q2 21 3 42l1 38l2 39v9q0 53 -15 64.5t-84 11.5h-217q-43 0 -52 -13.5t-9 -81.5l1 -160q1 -22 7 -26.5t35 -4.5h105q79 0 79 52v3l-1 28l-2 38q0 27 13 27q14 0 14 -28
q0 -7 -3 -39q-5 -52 -5 -89q0 -86 9 -152v-9q0 -28 -14 -28q-16 0 -16 32v5l3 36l2 33v7q0 37 -17 50.5t-62 13.5h-111q-26 0 -31.5 -6.5t-5.5 -34.5v-212q0 -28 1 -34q4 -20 19 -25q10 -3 56 -3h185q90 0 109.5 16.5t19.5 90.5q0 25 -1 44l-2 41q0 30 14 30q13 0 13 -25v-4
l-3 -31q0 -14 -1.5 -41.5t-1.5 -41.5v-58q0 -29 -9.5 -39.5t-36.5 -9.5z" />
    <glyph glyph-name="F" unicode="F" 
d="M157 87l2 74l-1 411q0 38 -4 49q-8 22 -38 22q-15 0 -33 -2l-27 -3h-5q-26 0 -26 14q0 15 27 15h5q47 -5 76 -5h4l24 1h83q152 0 227 4l80 4q35 0 34 -24q-2 -14 -2 -34v-41l-1 -44q0 1 2 -59l1 -33q0 -29 -14 -29q-6 0 -10.5 9t-4.5 15q0 11 2 31q3 30 3 72q0 59 -5 74
q-12 35 -58 35h-244q-48 0 -57.5 -7.5t-9.5 -43.5v-232q2 -10 5.5 -13t25.5 -3h123q79 0 79 66q0 3 -2 29t-2 38q0 29 15 29q14 0 14 -33q0 -12 -3 -47l-4 -46q-2 -23 -2 -48q0 -30 6 -93l4 -42v-6q0 -29 -15 -29t-15 32v6l2 26q1 13 1 30q0 39 -16.5 53.5t-61.5 14.5h-126
q-17 0 -22.5 -7.5t-5.5 -28.5v-59l2 -142q0 -36 8 -50q11 -18 42 -18q15 0 31 2q8 1 24 1q22 0 22 -13t-21 -13h-3l-23 2q-9 0 -28 2q-39 4 -54 4h-28q-13 0 -52 -4q-20 -2 -29 -2l-22 -2h-4q-21 0 -21 12q0 14 22 14q17 0 25 -1q16 -2 31 -2q30 0 41 20q6 13 7 48z" />
    <glyph glyph-name="G" unicode="G" horiz-adv-x="728" 
d="M568 90v17q-23 -46 -55 -72q-66 -54 -164 -54q-135 0 -217.5 96.5t-82.5 253.5q0 155 85 255t216 100q100 0 165 -61q27 -25 48 -70v13q0 8 -1 40l-1 32q0 23 14 23q16 0 16 -21q0 -3 -4 -43q-6 -27 -6 -83q-1 -4 -1 -13q0 -32 4 -66q3 -25 3 -29q0 -24 -15 -24t-15 22v1
l2 46v9q0 89 -58.5 145t-152.5 56q-120 0 -194.5 -92.5t-74.5 -242.5q0 -147 73 -236t194 -89q74 0 132 35.5t75 91.5q12 39 12 88q0 72 -47 72l-37 -2t-32 -2q-25 0 -25 14q0 13 19 13h2l32 -3q32 -3 81 -3q39 0 110 6q24 2 31 2q22 0 22 -12q0 -14 -24 -14q-9 0 -28 1
t-28 1q-50 0 -51 -69l-1 -63q0 -39 3 -81l3 -45q0 -25 -15 -25q-16 0 -16 24l2 26t2 32z" />
    <glyph glyph-name="H" unicode="H" horiz-adv-x="783" 
d="M201 342q-14 -1 -14 -18v-94l2 -142q0 -37 8 -50q10 -19 42 -19q8 0 31 2t24 2q21 0 21 -14q0 -13 -20 -13q-15 0 -55 4q-50 5 -53 5h-28q-2 0 -52 -5q-40 -4 -55 -4q-21 0 -21 12q0 15 22 15q2 0 25 -2t31 -2q30 0 41 21q6 13 7 48l2 74l-2 418q-1 35 -7 48
q-11 20 -41 20q-7 0 -31 -2q-12 -1 -25 -1q-22 0 -22 13t21 13h4l22 -2q14 0 40.5 -3t40.5 -3h28q14 0 53 4q20 2 29 2l22 2h4q20 0 20 -12q0 -14 -21 -14q-12 0 -24 1q-24 2 -32 2q-31 0 -41 -19q-8 -13 -8 -49l-2 -207q0 -10 12 -10h374q17 0 19.5 2t2.5 10v131l-2 74
q-1 35 -8 48q-10 20 -41 20q-8 0 -31 -2q-11 -1 -24 -1q-22 0 -22 13t21 13h3l23 -2q69 -6 81 -6h28q3 0 54 4q12 1 28 2l23 2h3q20 0 20 -12q0 -14 -21 -14q-13 0 -24 1q-23 2 -32 2q-31 0 -41 -19q-8 -13 -8 -49l-2 -143l2 -349q1 -40 11.5 -54.5t38.5 -14.5q8 0 31 2
t24 2q21 0 21 -14q0 -13 -20 -13q-14 0 -54 4q-50 5 -54 5h-28q-5 0 -53 -5q-40 -4 -54 -4q-21 0 -21 12q0 15 22 15q9 0 27.5 -2t27.5 -2q31 0 41 21q7 13 8 48l2 74v167q0 14 -12 14h-1z" />
    <glyph glyph-name="I" unicode="I" horiz-adv-x="347" 
d="M187 437l2 -349q1 -36 8 -48q10 -20 42 -20q9 0 30 1q7 0 15 1t10 1q21 0 21 -14q0 -13 -21 -13h-3l-23 2q-8 0 -28 2q-42 4 -59 4h-16q-23 0 -59 -4t-54 -4q-21 0 -21 12q0 15 21 15q2 0 10 -1t15 -1q21 -1 30 -1q32 0 42 20q7 12 8 48l2 74l-2 418q-1 35 -8 48
q-10 20 -41 20q-8 0 -31 -2q-11 -1 -25 -1q-21 0 -21 13t21 13h3l23 -2q7 0 28 -2q41 -4 59 -4h16q18 0 59 4q21 2 29 2l22 2h4q20 0 20 -12q0 -14 -21 -14q-12 0 -24 1q-24 2 -32 2q-31 0 -41 -19q-8 -13 -8 -49z" />
    <glyph glyph-name="J" unicode="J" horiz-adv-x="601" 
d="M471 506v-202q0 -105 -4 -134q-9 -79 -49 -120q-66 -69 -187 -69q-98 0 -158 45t-60 120q0 52 32 87.5t79 35.5q61 0 61 -45q0 -38 -36 -38q-28 0 -28 27q0 8 5.5 15t6.5 8t1 2q0 9 -18 9q-32 0 -55.5 -29t-23.5 -69q0 -66 51 -106t135 -40q165 0 203 108q17 48 17 174
l-2 295q0 35 -7 48q-9 20 -39 20q-9 0 -27.5 -1.5t-27.5 -1.5q-22 0 -22 13t21 13h3l23 -2q69 -6 81 -6h24q14 0 41 3t41 3l22 2h4q21 0 21 -12q0 -14 -22 -14q-13 0 -25 1q-24 2 -31 2q-30 0 -41 -19q-8 -14 -8 -49z" />
    <glyph glyph-name="K" unicode="K" horiz-adv-x="765" 
d="M181 437v-166l382 347q10 10 10 16q0 12 -24 12q-6 0 -5 0l-31 -2l-31 -1l-3 -1q-29 0 -29 15q0 14 23 14q1 0 39 -4t84 -4q40 0 76 4l36 4q24 0 24 -14q0 -13 -23 -13q-13 0 -22 2q-24 2 -27 2q-25 0 -64 -34l-29 -25l-187 -171q-11 -10 -11 -16q0 -4 8 -15l106 -146
q98 -135 125 -168q30 -37 52 -48q12 -6 41 -6q8 0 17 0.5t15.5 1.5l6.5 1h2q19 0 19 -13t-22 -13q-4 0 -37 4q-41 5 -79 5q-4 0 -36 -2q-10 0 -45 -4q-25 -3 -39 -3q-26 0 -26 12q0 14 26 14h5l28 -2l29 -1q32 0 32 14q0 8 -12 24l-32 44l-196 266q-10 13 -16 13
q-5 0 -15 -9l-134 -122q-10 -9 -10 -16q-1 -3 -1 -10v-14v-28q1 -19 1 -20l1 -74q0 -36 8 -50q11 -18 42 -18q16 0 31 2q8 1 24 1q22 0 22 -14q0 -12 -21 -12q-2 0 -26 2q-9 0 -28 2q-35 4 -54 4h-28q-10 0 -52 -4t-51 -4h-4q-21 0 -21 12q0 14 22 14q13 0 24.5 -1.5
t30.5 -1.5q31 0 41 20q7 13 8 48l2 74l-2 419q-1 35 -8 48q-10 20 -41 20q-6 0 -30 -2q-12 -1 -25 -1q-22 0 -22 13t21 13h4l22 -2l29 -3q2 0 34 -2q17 -1 18 -1h24q30 0 58 3l28 3q7 1 23 2h2q21 0 21 -12q0 -14 -21 -14q-13 0 -24 1q-23 2 -32 2q-31 0 -41 -19
q-8 -13 -8 -49z" />
    <glyph glyph-name="L" unicode="L" 
d="M233 25h227q68 0 86.5 15.5t18.5 71.5v14l-2 56l-3 37v4q0 32 15 32q14 0 14 -27v-4l-3 -39q-3 -39 -3 -83q0 -31 2 -56q1 -12 1 -21q0 -21 -8.5 -25t-26.5 -4h-14q-16 1 -63 3l-120 4l-107 2h-113q6 0 -23 -1q-12 0 -29 -1l-25 -2h-4q-28 0 -28 14q0 15 25 15q4 0 6 -1
l27 -2q12 -2 33 -2q30 0 38 22q4 10 4 48v12q0 9 1 62v72l-1 339q-1 39 -11.5 53.5t-37.5 14.5q-7 0 -31 -2q-12 -1 -25 -1q-22 0 -22 13t21 13h4l22 -2q13 0 40.5 -3t40.5 -3h28q3 0 54 4q12 1 28 2l23 2h3q20 0 20 -12q0 -14 -21 -14q-13 0 -24 1q-23 2 -32 2
q-31 0 -41 -19q-8 -13 -8 -49l-2 -142l1 -369q0 -34 16 -41q9 -3 29 -3z" />
    <glyph glyph-name="M" unicode="M" horiz-adv-x="910" 
d="M187 624l2 -537q1 -35 8 -48q10 -20 41 -20q20 0 31.5 1.5t24.5 1.5q21 0 21 -14q0 -12 -21 -12h-3l-22 2q-8 0 -29 2l-27 3q-14 1 -26 1h-28q-11 0 -24 -1l-29 -3q-22 -2 -28 -2l-22 -2h-4q-21 0 -21 12q0 14 22 14q13 0 24.5 -1.5t30.5 -1.5q28 0 38.5 14.5t11.5 53.5
l1 74l-1 432q-1 28 -7 39q-9 16 -34 16q-10 0 -30.5 -2t-30.5 -2h-2q-23 0 -23 13q0 14 20 14q13 0 39.5 -2t39.5 -2h32q14 0 23 1l9 1q23 0 35 -32l217 -594q4 -10 8 -10t8 11l221 590q12 33 33 33h4l38 -2q19 -1 27 -1q19 0 40 2t34 2q20 0 20 -13q0 -12 -20 -12
q-13 0 -30 2t-31 2q-45 0 -45 -53v-3q0 -44 -1 -74t-1 -83l2 -347q1 -35 8 -48q10 -20 42 -20q19 0 30.5 1.5t24.5 1.5q21 0 21 -14q0 -12 -20 -12q-6 0 -26 2q-50 5 -63 5q-3 0 -9 1h-10h-28q-10 0 -53 -4q-21 -2 -28 -2l-22 -2h-4q-21 0 -21 12q0 14 22 14q16 0 24 -1
q15 -2 31 -2q31 0 41 20q7 13 8 48l2 74v466q0 12 -4 12q-3 0 -5 -5l-2 -4l-230 -599q-12 -30 -29 -30q-18 0 -29 30l-220 596q-5 14 -10 14q-7 0 -7 -17z" />
    <glyph glyph-name="N" unicode="N" horiz-adv-x="783" 
d="M572 33l-376 598q-4 6 -6 6q-3 0 -3 -10l2 -539q1 -39 11.5 -53.5t37.5 -14.5q8 0 31 2q12 1 25 1q21 0 21 -13t-21 -13h-3h-10q-7 1 -12 1q-12 1 -29 3q-31 3 -34 3h-65q-2 0 -34 -3q-7 0 -29 -3q-5 0 -12 -1h-10h-4q-21 0 -21 12q0 14 22 14q13 0 25 -1q23 -2 31 -2
q30 0 41 20q6 13 7 48l2 74v406q-1 48 -5 59q-9 20 -46 20q-15 0 -27 -1q-24 -2 -26 -2h-3q-21 0 -21 12q0 15 21 15q8 0 26 -3q45 -3 53 -3q5 0 13 1h12q21 3 28 3q19 0 31 -21l10 -17l371 -585q3 -7 8 -7q4 0 4 11l-2 529q-1 35 -8 48q-10 20 -41 20q-8 0 -31 -2t-25 -2
q-21 0 -21 14q0 12 21 12h3l23 -1q7 -1 28 -3q30 -3 53 -3h28q24 0 53 3q12 1 29 3l25 1q21 0 21 -12q0 -14 -21 -14q-2 0 -25 2t-31 2q-31 0 -41 -20q-7 -13 -8 -48l-2 -74v-459q0 -36 -8 -45q-5 -5 -16 -5q-17 0 -40 37z" />
    <glyph glyph-name="O" unicode="O" horiz-adv-x="673" 
d="M333 686q130 0 211 -97.5t81 -255.5q0 -157 -78 -254.5t-204 -97.5q-133 0 -213.5 96.5t-80.5 254.5q0 157 79 255.5t205 98.5zM337 3q116 0 186.5 90.5t70.5 238.5q0 146 -73.5 238.5t-189.5 92.5q-112 0 -182 -91.5t-70 -236.5q0 -151 70.5 -241.5t187.5 -90.5z" />
    <glyph glyph-name="P" unicode="P" horiz-adv-x="637" 
d="M357 293h-149q-21 0 -21 -20v-43l2 -142q1 -40 11.5 -54.5t38.5 -14.5q9 0 27.5 2t27.5 2q22 0 22 -14q0 -13 -21 -13q-15 0 -54 4q-49 5 -54 5h-28q-3 0 -52 -5q-39 -4 -54 -4q-22 0 -22 12q0 15 22 15q2 0 25 -2t31 -2q27 0 37.5 14.5t11.5 54.5l1 74l-1 418
q0 36 -8 49q-10 19 -41 19q-7 0 -31 -2q-12 -1 -25 -1q-22 0 -22 13t21 13h4l22 -2l29 -3q1 0 12 -1t22 -1q5 0 11 -1h7h51q10 0 95 4q44 2 78 2q108 0 165 -51t57 -140q0 -94 -63 -142q-38 -29 -88 -38q-30 -5 -97 -5zM188 618q-1 -8 -1 -23v-253q0 -21 19 -26q5 -1 38 -1
h10q39 0 86 -1h18q119 0 166 39q51 43 51 123q0 86 -55 130q-51 40 -148 40q-51 0 -124 -4q-19 -1 -38 -1q-20 -3 -22 -23z" />
    <glyph glyph-name="Q" unicode="Q" horiz-adv-x="673" 
d="M561 97q-38 -55 -111 -93l2 -37q5 -89 19 -113.5t62 -24.5q43 0 62 24t19 79v4q0 -2 -1 5q0 23 12 23q16 0 16 -33q0 -124 -107 -124q-51 0 -75 22.5t-29 72.5q-2 20 -5 92q-47 -13 -88 -13q-128 0 -208 97t-80 253q0 158 80 256.5t210 98.5q127 0 207 -99t80 -255
q0 -142 -65 -235zM447 90q3 -24 3 -60q37 21 55.5 39t37.5 53q52 94 52 212q0 124 -59 220q-67 109 -195 109q-116 0 -189 -91t-73 -237q0 -132 65 -233q30 -47 95 -80q-30 34 -30 75q0 47 33.5 76t88.5 29q102 0 116 -112zM341 3q39 0 83 15l1 14q10 147 -96 147
q-44 0 -70 -23.5t-26 -62.5q0 -90 108 -90z" />
    <glyph glyph-name="R" unicode="R" horiz-adv-x="746" 
d="M524 358q-22 -13 -59 -20q45 -16 64 -39q40 -48 38 -145l-1 -60q-1 -85 59 -85q38 0 53 29t15 100v25l-2 69l-1 3q0 25 14 25t14 -26l-2 -138q-1 -50 -25.5 -80t-65.5 -30q-85 0 -85 118v63q0 97 -38 130.5t-148 33.5h-126q-30 0 -35.5 -7.5t-5.5 -23.5v-70l2 -142
q0 -37 8 -50q10 -19 42 -19q8 0 31 2t24 2q21 0 21 -14q0 -13 -20 -13q-14 0 -54 4q-50 5 -54 5h-28q-3 0 -52 -5q-39 -4 -54 -4q-22 0 -22 12q0 15 22 15q2 0 25 -2t31 -2q27 0 37.5 14.5t11.5 54.5l1 74l-1 418q-1 39 -11.5 53.5t-37.5 14.5q-7 0 -31 -2q-12 -1 -25 -1
q-22 0 -22 13t21 13h4l22 -2q14 0 40.5 -3t40.5 -3h28l58 1l67 4q34 2 67 2q226 0 226 -167q0 -99 -81 -145zM187 371q0 -15 11 -19q4 -1 25 -1h169q183 0 183 147q0 139 -170 148q-20 1 -50 1q-19 0 -57 -2t-57 -2q-37 0 -45.5 -10.5t-8.5 -55.5v-206z" />
    <glyph glyph-name="S" unicode="S" horiz-adv-x="582" 
d="M86 85l-4 7l1 -17l2 -27q2 -27 2 -28v-2q0 -21 -13 -21q-15 0 -15 25v5q4 61 4 118q0 49 -2 78t-2 35q0 19 14 19q13 0 13 -16q0 -9 -2 -28t-2 -29q0 -95 56 -148t157 -53q91 0 146 48.5t55 127.5q0 111 -102 135q-36 9 -96 13q-225 17 -225 172q0 80 60.5 133.5
t151.5 53.5q110 0 165 -68q13 -16 23 -47q1 13 1 28q0 13 -1 23l-2 21v4q0 24 14 24t14 -18q0 1 -4 -36t-4 -91q0 -41 2 -62q3 -31 3 -33q0 -19 -13 -19q-15 0 -15 20q0 7 1.5 21t1.5 21q0 89 -49 139t-135 50q-82 0 -132.5 -45t-50.5 -117q0 -69 47 -104.5t149 -44.5
q89 -8 129.5 -22t65.5 -47q32 -41 32 -106q0 -88 -62 -142t-163 -54q-70 0 -125.5 25t-83.5 68z" />
    <glyph glyph-name="T" unicode="T" 
d="M411 665l140 3q29 1 29 -23v-2l-3 -48q-1 -16 -1 -75q0 -18 1 -41l2 -49q0 -22 -14 -22q-15 0 -15 22l1 2l4 58q2 29 2 73q0 59 -10 70.5t-60 11.5h-128q-26 0 -32 -6.5t-6 -35.5l2 -516q0 -36 8 -50q11 -18 42 -18q16 0 31 2q8 1 24 1q21 0 21 -13t-20 -13h-3l-23 2
q-9 1 -29 2q-47 4 -53 4h-28q-9 0 -28 -2l-25 -2q-23 -2 -28 -2l-22 -2h-4q-21 0 -21 12q0 14 22 14q17 0 25 -1q16 -2 31 -2q30 0 41 20q6 13 7 48l2 73v442q0 31 -6 37t-35 6h-119q-42 0 -52 -6q-18 -10 -19 -49q-1 -29 -1 -73q0 -11 1 -29l3 -57q0 -24 -13 -24
q-14 0 -14 27v3l3 56v114l-2 40q1 24 33 24q10 0 51 -2q82 -4 229 -4h59z" />
    <glyph glyph-name="U" unicode="U" horiz-adv-x="746" 
d="M607 506v-298q0 -66 -10.5 -99.5t-40.5 -61.5q-70 -66 -182 -66q-109 0 -179 65q-57 53 -57 166l-2 368q-1 35 -8 48q-10 20 -41 20q-8 0 -31 -2q-11 -1 -25 -1q-21 0 -21 13t21 13h3l22 -2q14 0 41 -3t41 -3h29q13 0 40.5 3t40.5 3l22 2h3q21 0 21 -12q0 -14 -21 -14
q-13 0 -25 1q-24 2 -31 2q-31 0 -41 -19q-8 -13 -8 -49l-2 -142v-209q0 -62 4 -84q8 -41 38 -75q60 -67 164 -67q60 0 112 25q61 28 82 78q13 30 13 100v232q0 35 -1 68l-2 74q0 38 -11 53t-39 15q-7 0 -30 -2q-11 -1 -24 -1q-21 0 -21 13t20 13h4l22 -2q13 0 40 -3t40 -3
h30q12 0 81 6l23 2h3q21 0 21 -12q0 -14 -21 -14q-13 0 -25 1q-25 2 -32 2q-30 0 -41 -20q-6 -13 -7 -48z" />
    <glyph glyph-name="V" unicode="V" horiz-adv-x="637" 
d="M551 601l-12 -33l-192 -551q-12 -34 -25 -34t-21 23l-210 583q-21 58 -53 58q-2 0 -16 -2q-7 -1 -18 -1q-23 0 -23 12q0 15 26 15h6l28 -3l33 -3q11 -1 36 -1h32q30 6 64 6h2q23 0 23 -12q0 -14 -22 -14q-1 0 -7.5 0.5t-19 1.5t-19.5 1q-50 0 -50 -24q0 -5 2.5 -17
t4.5 -16l195 -546q3 -9 7 -9q3 0 7 11l189 551q4 12 4 22q0 28 -44 28q-9 0 -28 -2t-28 -2q-22 0 -22 12q0 14 20 14h4l29 -2q72 -5 95 -5q20 0 27 1l36 5q3 0 11 1h13h1q20 0 20 -12q0 -13 -21 -13h-14q-3 0 -8 1h-8q-25 0 -35 -9t-19 -35z" />
    <glyph glyph-name="W" unicode="W" horiz-adv-x="837" 
d="M413 625l-2 -8l-134 -582q-12 -50 -29 -50q-18 0 -26 37l-127 578q-5 23 -10 30q-9 13 -28 13h-3l-17 -1h-16q-28 0 -28 14t21 14q11 0 33 -4q27 -5 62 -5q49 0 80 4l31 4h5q23 0 23 -14q0 -13 -22 -13h-4q-19 0 -35 1.5t-19 1.5q-42 0 -42 -28q0 -7 3 -24l4 -23
l108 -515q3 -16 6 -18q7 0 7 18l133 580q8 36 30 36t32 -46l126 -571q0 -2 2 -7l3 -9q1 -2 2 -3q3 0 7 17l116 511q9 40 9 48q0 34 -45 34q-17 0 -28 -1q-22 -2 -28 -2q-24 0 -24 14q0 13 22 13q9 0 39 -4t68 -4q37 0 79 4q21 2 26 2q22 0 22 -14q0 -13 -22 -12l-16 1h-9
q-32 0 -42.5 -11.5t-18.5 -48.5l-127 -560q-9 -40 -29 -40q-17 0 -25 37l-134 602q-2 11 -5 11q-2 0 -4 -7z" />
    <glyph glyph-name="X" unicode="X" horiz-adv-x="728" 
d="M347 308l-186 -255q-9 -13 -9 -20q0 -16 36 -16q9 0 25 2q24 3 35 3q29 0 29 -14q0 -12 -23 -12q-21 0 -62 3.5t-62 3.5q-40 0 -75 -4q-26 -3 -39 -3q-21 0 -21 12q0 14 23 14q8 0 24.5 -1.5t24.5 -1.5q29 0 48 23l22 27l22 26l179 242q8 11 8 15q0 5 -8 15l-181 234
q-24 31 -34.5 38.5t-31.5 7.5q-8 0 -24.5 -2t-24.5 -2q-23 0 -23 14t24 14q7 0 35 -3q46 -5 72 -5q14 0 86 5q16 1 41 3h5q21 0 21 -11q0 -14 -32 -14h-7l-9.5 1t-20.5 1q-31 1 -30 1q-29 0 -29 -16q0 -13 24 -44l150 -193q12 -15 16 -15q5 0 16 15l164 220q6 8 6 16
q0 16 -33 16q-23 0 -68 -5h-2q-25 0 -25 15q0 13 22 13h2q11 -1 32 -3l35 -4h14q10 -1 17 -1q40 0 85 4l46 4q24 0 24 -13t-22 -13q-2 0 -26 2t-22 2q-27 0 -48 -27l-17 -22l-174 -233q-8 -11 -8 -15t8 -15l189 -250q52 -69 88 -69q7 0 22 2t23 2q21 0 21 -12q0 -14 -23 -14
q-16 0 -50 3.5t-53 3.5q-20 0 -51 -2l-82 -5q-25 0 -25 13q0 6 13 11q10 2 16 2h5l28 -3q9 -1 21 -1q47 0 47 16q0 7 -9 20l-18 25l-174 230q-11 14 -16 14t-16 -15z" />
    <glyph glyph-name="Y" unicode="Y" 
d="M325 261v-100l2 -74q1 -35 8 -48q10 -20 41 -20q16 0 31 2q8 1 24 1q22 0 22 -13t-21 -13h-4l-22 2q-8 0 -28 2q-24 2 -35.5 3t-17.5 1h-34q-7 0 -16.5 -0.5t-31 -3t-33.5 -2.5l-22 -2h-4q-21 0 -21 12q0 14 22 14q14 0 25 -1.5t30 -1.5q30 0 41.5 14.5t12.5 53.5l2 74
l1 103q0 13 -6 23l-195 316q-15 24 -21 30q-13 13 -32 13q-8 0 -23.5 -1t-23.5 -1q-25 0 -25 13t25 13q7 0 32 -3q33 -4 70 -4q36 0 82 5q28 3 33 3q20 0 20 -13q0 -14 -22 -14q-6 0 -40 2l-37 2q-23 0 -23 -13q0 -2 4 -10l7 -11l175 -289q8 -14 16 -14q7 0 16 14l162 262
q22 36 22 44q0 12 -20 13l-15 1h-12q-12 -1 -21 -1.5t-26 -0.5q-32 0 -32 13t22 13q6 0 40 -4t77 -4q6 0 44 2q8 0 28 2.5t30 2.5q19 0 19 -13t-25 -13q-2 0 -8 1h-8l-22 2q-16 0 -24 -7t-27 -36l-201 -318q-7 -11 -7 -23z" />
    <glyph glyph-name="Z" unicode="Z" 
d="M51 46l13 16l452 559q11 17 11 19q0 5 -18 5h-363q-35 0 -45 -18q-6 -11 -6 -50q0 -26 4 -74q2 -24 2 -41v-2q0 -26 -13 -26q-15 0 -15 33v3l2 36l1 40q1 5 1 25v35l-1 27q0 34 22 34h414q43 0 48 -9q2 -4 2 -11q0 -12 -17 -33l-473 -585q-1 -1 -2 -4q0 -4 22 -4h375
q41 0 52 22q8 14 8 58q0 45 -5 115v6q0 30 15 30q14 0 14 -31q0 7 -2 -33l-2 -40q-1 -20 -1 -36q0 -45 3 -74q2 -19 2 -18q0 -20 -32 -20h-445q-37 0 -37 19q0 10 14 27z" />
    <glyph glyph-name="bracketleft" unicode="[" horiz-adv-x="328" 
d="M70 -112v711v18q-1 11 -1 14q-2 12 -2 23q0 24 21 24q8 0 13 -1h16q12 -1 21 -1h77q-4 0 47 3q16 1 17 1q27 0 27 -16t-26 -16q-11 0 -19.5 1t-21.5 2t-20 1h-73q-31 0 -37.5 -8t-6.5 -49v-703q0 -40 6 -48t38 -8h92q9 0 21 2q22 2 23 2q24 0 24 -16q0 -17 -26 -17
q-10 0 -18 1q-23 3 -47 3h-77q-21 0 -37 -2h-13q-21 0 -21 25q0 11 2 22q0 4 1 15v17z" />
    <glyph glyph-name="backslash" unicode="\" horiz-adv-x="500" 
d="M24 750h26l401 -833h-25z" />
    <glyph glyph-name="bracketright" unicode="]" horiz-adv-x="328" 
d="M258 598v-710q0 -10 1.5 -28.5t1.5 -27.5q0 -23 -23 -23h-12q-6 1 -15 1h-98q-33 0 -48 -2q-7 -1 -17 -1q-26 0 -26 16t25 16q3 0 21 -2q7 0 20.5 -1t20.5 -1h72q32 0 38.5 8.5t6.5 48.5v702q0 40 -6.5 48.5t-38.5 8.5h-72q1 0 -20 -1l-21 -1l-22 -2q-24 0 -24 16
q0 17 26 17q1 0 17 -1q51 -3 48 -3h77q7 0 20 1h16q6 1 14 1q21 0 21 -25q0 -9 -1.5 -27.5t-1.5 -27.5z" />
    <glyph glyph-name="asciicircum" unicode="^" horiz-adv-x="500" 
d="M249 647l-175 -257h-31l190 277h34l191 -277h-33z" />
    <glyph glyph-name="underscore" unicode="_" horiz-adv-x="500" 
d="M0 -107v22h500v-22h-500z" />
    <glyph glyph-name="grave" unicode="`" horiz-adv-x="491" 
d="M145 696q7 0 22 -11l129 -96q10 -7 10 -14q0 -10 -10 -10q-6 0 -15 6l-132 92q-18 13 -18 21q0 12 14 12z" />
    <glyph glyph-name="a" unicode="a" horiz-adv-x="546" 
d="M394 91l-1 8l-4 -7q-13 -22 -37 -46q-62 -61 -154 -61q-72 0 -117 38t-45 99q0 51 32 88t85 48q36 7 85 10q81 5 117 28.5t36 72.5q0 50 -39 80.5t-103 30.5q-67 0 -110.5 -29t-43.5 -73q0 -16 9 -16q2 0 6 4q0 1 2 6q7 17 27 17q30 0 30 -32q0 -17 -13.5 -29.5
t-32.5 -12.5q-23 0 -39.5 17.5t-16.5 41.5q0 54 51.5 90t128.5 36q78 0 123 -37q49 -41 49 -128v-193l2 -56q3 -81 52 -81q54 0 54 74v5l-1 44q-1 29 14 29q13 0 13 -20l-1 -40q-3 -112 -80 -112q-72 0 -77 88zM202 5q80 0 135.5 56t55.5 135v97q0 10 -4 10q-1 0 -11 -12
q-32 -39 -142 -46q-64 -4 -95.5 -15t-52.5 -37q-24 -29 -24 -72q0 -50 39 -83t99 -33z" />
    <glyph glyph-name="b" unicode="b" horiz-adv-x="564" 
d="M132 643v-264q23 48 53 74q54 47 129 47q95 0 153 -70.5t58 -186.5q0 -119 -58.5 -188.5t-160.5 -69.5q-118 0 -174 111q0 -37 1 -48q2 -21 2 -33q0 -22 -16 -22t-16 19l3 129v391q0 110 -11 120q-8 7 -30 7q-15 0 -33 -2q-26 -3 -30 -3q-19 0 -19 13t16 13h3l29 -2h39
q7 0 19.5 1t19.5 1q16 0 21 -11q2 -6 2 -26zM305 5q90 0 141 62.5t51 171.5q0 112 -49 176.5t-135 64.5q-80 0 -130 -56q-29 -33 -40.5 -73.5t-11.5 -113.5q0 -112 41 -167q49 -65 133 -65z" />
    <glyph glyph-name="c" unicode="c" horiz-adv-x="510" 
d="M391 345q13 0 17 -5l6 -7q5 -3 8 -3q14 0 14 28q0 51 -45.5 86.5t-110.5 35.5q-97 0 -155 -66t-58 -177q0 -107 55.5 -169.5t150.5 -62.5q90 0 136 58q32 41 34 80q1 25 14 25q14 0 14 -19q0 -60 -52 -112t-143 -52q-107 0 -172 69.5t-65 182.5q0 117 66 190t172 73
q78 0 131 -42.5t53 -104.5q0 -32 -17.5 -53t-43.5 -21q-39 0 -39 36q0 30 30 30z" />
    <glyph glyph-name="d" unicode="d" horiz-adv-x="582" 
d="M426 46v40q-60 -101 -170 -101q-96 0 -156.5 70t-60.5 181q0 114 64.5 189t162.5 75q114 0 160 -99v131q0 100 -7 114t-33 14q-11 0 -34 -3t-30 -3q-19 0 -19 13t17 13h3l29 -2h49q10 0 17 1h13q11 0 15.5 -4t4.5 -20v-28l1 -41v-441q0 -101 7 -114.5t33 -13.5q7 0 33 3
t30 3q20 0 20 -13t-17 -13h-3l-29 2h-52q-13 0 -16 -0.5t-7 -1.5h-5q-11 0 -15.5 8.5t-4.5 40.5zM428 228v13q0 116 -27 165q-41 74 -137 74q-85 0 -141 -69.5t-56 -175.5q0 -101 53.5 -165.5t138.5 -64.5q72 0 120 52q28 31 38.5 67t10.5 104z" />
    <glyph glyph-name="e" unicode="e" horiz-adv-x="528" 
d="M481 281q0 -21 -9.5 -25t-29.5 -4h-354q-14 0 -17.5 -4t-3.5 -20q0 -100 54.5 -161.5t142.5 -61.5q95 0 149 67q21 26 30 57q0 3 5 25q4 17 15 17q12 0 12 -14q0 -17 -11 -45q-24 -60 -76.5 -93.5t-122.5 -33.5q-102 0 -164 69t-62 182q0 117 64.5 190.5t166.5 73.5
q89 0 150 -63.5t61 -155.5zM71 290q0 -15 22 -15h344q17 0 17 16q0 64 -44 122q-51 67 -142 67q-69 0 -118.5 -38.5t-70.5 -108.5q-8 -26 -8 -43z" />
    <glyph glyph-name="f" unicode="f" horiz-adv-x="346" 
d="M276 -5l-35 3l-41 3l-29 1h-19l-28 -1l-42 -3l-35 -3h-3q-19 0 -19 12q0 13 22 13h5q7 0 21.5 -1t21.5 -1q38 0 46 24t8 141v258q0 27 -18 27q-9 0 -32 -2t-29 -2q-23 0 -23 14q0 12 17 12h3l29 -2q5 -1 30 -1h2q15 0 18.5 5t3.5 27q2 169 156 169q48 0 79.5 -22
t31.5 -55q0 -45 -41 -45q-33 0 -33 33q0 30 27 30q8 0 8 5q0 11 -19 21q-24 13 -57 13q-127 0 -127 -158q0 -16 4 -20t20 -4h5q4 1 6 1l92 3q25 0 25 -12q0 -14 -27 -14q7 0 -40 2l-47 2q-2 0 -6 1h-7q-16 0 -20.5 -5t-4.5 -23v-258q0 -117 8 -141t46 -24q7 0 21 1t21 1h5
q22 0 22 -12q0 -13 -18 -13q-5 0 -4 0z" />
    <glyph glyph-name="g" unicode="g" horiz-adv-x="583" 
d="M298 177q-92 0 -148 56h-6q-24 0 -39 -14t-15 -37q0 -70 134 -72l71 -1q121 -2 178 -25q88 -36 88 -121q0 -74 -67 -113t-194 -39q-125 0 -194 38.5t-69 109.5q0 93 124 136q-99 15 -99 88q0 57 72 75q-17 36 -17 72q0 74 51.5 122t130.5 48q56 0 117 -34q-4 17 -4 27
q0 34 26.5 57t66.5 23q34 0 56 -19t22 -48q0 -20 -12.5 -34.5t-30.5 -14.5q-31 0 -31 30q0 28 25 28q1 0 9 -2q-2 0 5 -1q7 0 7 8q0 12 -14.5 21t-34.5 9q-32 0 -51 -18t-19 -48q0 -16 8 -32l20 -40q17 -34 17 -75q0 -72 -50.5 -116t-132.5 -44zM299 197q70 0 112 38t42 102
q0 65 -41.5 104t-110.5 39q-70 0 -113 -40.5t-43 -106.5q0 -62 42 -99t112 -37zM303 -169q109 0 169.5 34t60.5 96q0 128 -244 128q-107 0 -165.5 -34t-58.5 -97q0 -61 61.5 -94t176.5 -33z" />
    <glyph glyph-name="h" unicode="h" horiz-adv-x="637" 
d="M161 400q26 39 52 59q55 41 131 41q56 0 98 -23q47 -27 61 -77q8 -29 8 -101v-116q0 -117 8 -141t46 -24q7 0 21 1t21 1h5q22 0 22 -12q0 -13 -19 -13h-3l-35 3l-41 3l-28 1h-20l-27 -1l-40 -3l-33 -3h-4q-19 0 -19 12q0 13 22 13h5q7 0 20 -1t19 -1q38 0 46 24t8 141
v111q0 55 -3 74q-6 41 -29 67q-39 45 -115 45q-70 0 -120 -45q-57 -51 -57 -145v-107q0 -116 8 -140.5t45 -24.5q6 0 19.5 1t19.5 1h5q22 0 22 -12q0 -13 -19 -13h-3l-34 3l-40 3l-26 1h-20l-28 -1l-42 -3l-35 -3h-3q-19 0 -19 12q0 13 22 13h5q7 0 21.5 -1t21.5 -1
q38 0 46 24t8 141v349q0 99 -7.5 113t-33.5 14q-14 0 -33 -2q-28 -3 -30 -3q-20 0 -20 13t18 13h2l29 -2h40q6 0 18.5 1t18.5 1q24 0 24 -24v-256z" />
    <glyph glyph-name="i" unicode="i" horiz-adv-x="309" 
d="M179 183q0 -117 8 -141t46 -24q7 0 21 1t21 1h5q22 0 22 -12q0 -13 -18 -13q-5 0 -4 0l-35 3l-41 3l-29 1h-19l-28 -1l-42 -3l-35 -3h-3q-19 0 -19 12q0 13 22 13h5q7 0 21.5 -1t21.5 -1q38 0 46 24t8 141v157q0 73 0 63q-2 52 -15 60q-8 5 -26 5q-6 0 -33 -2l-27 -2h-3
q-20 0 -20 13t17 13h3l30 -3h48q6 0 18 1.5t18 1.5q16 0 16 -23v-284zM156 639q15 0 25.5 -11t10.5 -26t-10.5 -25.5t-24.5 -10.5q-16 0 -26.5 10.5t-10.5 25.5q0 16 10.5 26.5t25.5 10.5z" />
    <glyph glyph-name="j" unicode="j" horiz-adv-x="273" 
d="M79 487h37q8 0 22 1.5t22 1.5q21 0 21 -28v-6v-10q-1 -9 -1 -16l-1 -55v-361q0 -71 -2.5 -91.5t-14.5 -43.5q-37 -72 -135 -72q-59 0 -96.5 26.5t-37.5 68.5q0 19 12.5 32.5t30.5 13.5q34 0 34 -34q0 -25 -27 -29q-10 -2 -10 -8q0 -19 28.5 -34.5t64.5 -15.5q50 0 83 24
t40 67q4 24 4 98v324q0 102 -6.5 115t-33.5 13q-6 0 -33 -2l-27 -2h-3q-20 0 -20 13t16 13h4zM154 643q14 0 24 -11t10 -26t-10.5 -25.5t-26.5 -10.5q-14 0 -24 10.5t-10 25.5t10.5 26t26.5 11z" />
    <glyph glyph-name="k" unicode="k" horiz-adv-x="601" 
d="M161 215l252 224q9 8 9 16q0 12 -19 12h-14q-12 0 -22 -1q-20 -2 -26 -2q-21 0 -21 13t20 13q3 0 31 -3q37 -4 84 -4q38 0 82 5q18 2 30 2q20 0 20 -12q0 -13 -21 -13h-3l-21 2h-20q-43 0 -92 -44l-113 -102q-12 -11 -12 -17q0 -3 8 -14l166 -235q24 -36 65 -36q1 0 26 2
l24 2q21 0 21 -13t-25 -13q-10 0 -36 3q-11 2 -41 4l-32 1q-3 0 -41 -3l-38 -3l-32 -4h-4q-21 0 -21 13t21 13q1 0 25 -1t21 -1q43 0 43 17q0 7 -10 22l-32 48l-117 164q-9 13 -17 13q-5 0 -15 -9l-103 -93v-52q0 -58 4 -73q11 -37 53 -37q14 0 42 2h5q22 0 22 -12
q0 -13 -19 -13h-3l-35 3l-41 2l-31 2h-20l-28 -2l-42 -2l-35 -3h-3q-19 0 -19 12q0 13 22 13h5q28 -2 42 -2q39 0 47 23.5t8 140.5v349q0 101 -7.5 114.5t-33.5 13.5q-15 0 -33 -2q-36 -4 -30 -4q-20 0 -20 14q0 12 17 12h3q10 0 19.5 -1l9.5 -1h45q6 0 17.5 1t17.5 1
q17 0 21 -15q1 -5 1 -31v-11l-1 -53v-355z" />
    <glyph glyph-name="l" unicode="l" horiz-adv-x="291" 
d="M60 678h46q4 0 26 2h9q14 0 18 -9q2 -4 2 -21v-467q0 -116 8 -140.5t47 -24.5q7 0 21 1t21 1h5q21 0 21 -12q0 -13 -18 -13h-3l-35 3l-41 3l-29 1h-20l-29 -1l-41 -3l-35 -3h-4q-18 0 -18 12q0 13 22 13h4q7 0 21.5 -1t21.5 -1q39 0 47 24t8 141v349q0 91 -6 109t-35 18
q-15 0 -33 -2q-27 -3 -30 -3q-20 0 -20 13t17 13h3z" />
    <glyph glyph-name="m" unicode="m" horiz-adv-x="965" 
d="M177 464v-60q52 96 165 96q88 0 129 -48q18 -21 33 -62q21 42 42 63q49 47 128 47q59 0 100.5 -24.5t54.5 -67.5q7 -23 8 -55t1 -71v-99q0 -116 8 -140.5t46 -24.5q7 0 21 1t21 1h5q22 0 22 -12q0 -13 -18 -13h-4l-35 3l-41 3l-28 1h-20l-29 -1l-41 -3l-35 -3h-3
q-19 0 -19 12q0 13 22 13h5q7 0 21 -1t21 -1q39 0 47 23.5t8 141.5v108q0 76 -3 95.5t-20 42.5q-37 51 -119 51q-91 0 -133 -70q-26 -44 -26 -138v-89q0 -118 7.5 -141.5t47.5 -23.5q7 0 21 1t21 1h4q22 0 22 -12q0 -13 -18 -13h-4l-34 3l-41 3l-30 1h-19l-28 -1l-42 -3
l-35 -3h-3q-19 0 -19 12q0 13 22 13h5q7 0 21.5 -1t21.5 -1q38 0 46 24t8 141v125q0 49 -2 64q-5 33 -26 59q-39 49 -116 49q-85 0 -132 -62q-30 -40 -30 -118v-117q0 -117 7.5 -141t45.5 -24q7 0 21.5 1t21.5 1h5q22 0 22 -12q0 -13 -19 -13h-3l-35 3l-42 3l-26 1h-21
l-28 -1l-42 -3l-35 -3h-3q-19 0 -19 12q0 13 22 13h5q7 0 21 -1t21 -1q39 0 47 24t8 141v157q0 74 0 63q-2 52 -16 60q-7 5 -25 5q-6 0 -33 -2l-27 -2h-3q-20 0 -20 13t17 13h3l29 -3h45q6 0 19 1.5t19 1.5q16 0 16 -26z" />
    <glyph glyph-name="n" unicode="n" horiz-adv-x="674" 
d="M179 449v-54q35 63 89 86q46 19 95 19q72 0 118 -31.5t58 -88.5q8 -39 8 -123v-74q0 -117 8 -141t46 -24q7 0 21.5 1t21.5 1h5q22 0 22 -12q0 -13 -19 -13h-3l-35 3l-42 3l-28 1h-19l-29 -1l-41 -3l-35 -3h-4q-18 0 -18 12q0 13 22 13h4q7 0 21.5 -1t21.5 -1
q39 0 46.5 23.5t7.5 141.5v75q0 127 -28 166q-40 56 -134 56q-115 0 -161 -91q-19 -37 -19 -119v-87q0 -117 8 -141t46 -24q7 0 21 1t21 1h5q22 0 22 -12q0 -13 -18 -13q-5 0 -4 0l-35 3l-41 3l-30 1h-18l-28 -1l-42 -3l-35 -3h-3q-19 0 -19 12q0 13 22 13h5q7 0 21 -1
t21 -1q39 0 47 24t8 141v157q0 72 0 63q-2 52 -15 60q-8 5 -26 5q-6 0 -33 -2l-30 -2q-20 0 -20 13t18 13q7 0 31 -2q12 -1 23 -1h19q6 0 19 1.5t19 1.5q14 0 17.5 -7t3.5 -34z" />
    <glyph glyph-name="o" unicode="o" horiz-adv-x="546" 
d="M271 500q105 0 170.5 -72t65.5 -188q0 -113 -65.5 -184t-170.5 -71q-102 0 -167 74t-65 190q0 111 65 181t167 70zM271 5q92 0 150 64.5t58 167.5q0 108 -57.5 175.5t-149.5 67.5t-148.5 -64.5t-56.5 -168.5q0 -109 56 -175.5t148 -66.5z" />
    <glyph glyph-name="p" unicode="p" horiz-adv-x="582" 
d="M153 387q54 113 179 113q97 0 154 -67t57 -182q0 -119 -61.5 -192.5t-161.5 -73.5q-116 0 -167 95v-84q0 -118 8 -142.5t46 -24.5q7 0 21 1t21 1q2 1 6 1q21 0 21 -13q0 -12 -19 -12h-3l-35 3l-69 3h-20l-28 -1l-42 -2l-35 -3h-3q-19 0 -19 12q0 13 22 13q2 0 5 -1
q7 0 21.5 -1t21.5 -1q38 0 46 24t8 141v346q0 73 0 63q-2 52 -15 60q-8 5 -26 5q-6 0 -33 -2l-30 -2q-20 0 -20 13t17 13h3l29 -2l23 -1h12q8 0 23.5 1.5t23.5 1.5q20 0 20 -21q0 -6 -1 -10v-72zM323 5q88 0 140 65t52 174q0 113 -47.5 174.5t-135.5 61.5q-83 0 -132 -57
q-29 -33 -39 -69.5t-10 -105.5q0 -74 3 -97q7 -54 36 -87q51 -59 133 -59z" />
    <glyph glyph-name="q" unicode="q" horiz-adv-x="546" 
d="M264 500q115 0 165 -91v65l-1 14q-1 17 14 17t15 -17l-3 -161l1 -333q0 -129 11 -147t44 -18q7 0 21 1t21 1q2 1 5 1q22 0 22 -13q0 -12 -19 -12h-3l-35 3l-41 2l-29 1h-21l-27 -1l-42 -2l-34 -3h-4q-19 0 -19 12q0 13 22 13q3 0 5 -1q7 0 21.5 -1t21.5 -1q38 0 46 24.5
t8 142.5v75q-32 -47 -69.5 -66.5t-97.5 -19.5q-105 0 -164 66t-59 184q0 121 61 193t164 72zM394 62q24 33 29.5 62t5.5 119v77q-1 44 -22 82q-43 78 -143 78q-90 0 -143.5 -67t-53.5 -179q0 -108 50.5 -168.5t141.5 -60.5q93 0 135 57z" />
    <glyph glyph-name="r" unicode="r" horiz-adv-x="492" 
d="M179 404q55 96 157 96q60 0 98.5 -33.5t38.5 -86.5q0 -35 -17.5 -58.5t-44.5 -23.5q-36 0 -36 33q0 30 30 30q8 0 16 -6t11 -6q13 0 13 36q0 42 -31 68.5t-81 26.5q-86 0 -125 -64q-29 -48 -29 -148v-85q0 -117 8 -141t46 -24q7 0 21 1t21 1h5q22 0 22 -12q0 -13 -19 -13
h-3l-35 3l-41 3l-30 1h-18l-29 -1l-41 -3l-35 -3h-3q-19 0 -19 12q0 13 22 13h5q7 0 21 -1t21 -1q39 0 47 24t8 141v157q0 72 0 63q-2 52 -15 60q-8 5 -26 5q-6 0 -33 -2l-30 -2q-20 0 -20 13t17 13q9 0 32 -2q11 -1 23 -1h15q11 0 32 3q2 0 5 1h5q21 0 21 -22v-65z" />
    <glyph glyph-name="s" unicode="s" horiz-adv-x="492" 
d="M254 -15q-118 0 -174 84q2 -18 3 -25q2 -40 2 -35q0 -22 -13 -22q-15 0 -15 20q0 12 3 37.5t3 68.5q0 47 -3 73t-3 27q0 17 13 17q14 0 14 -25q0 -1 -1 -9.5t-1 -18.5q-1 -14 -1 -28q0 -64 48 -104t125 -40q72 0 116 34t44 89q0 50 -33 73t-116 33q-97 11 -130 25
q-28 12 -45 39.5t-17 59.5q0 60 48.5 101t121.5 41q99 0 152 -82v48q0 29 12 29t12 -16q0 -5 -3 -25q0 -2 -1 -13t-1 -20l-1 -37q0 -41 1 -49.5t2 -16.5v-9q0 -17 -13 -17q-12 0 -12 16v2l2 23q1 12 1 7q0 62 -41.5 101t-108.5 39q-62 0 -102.5 -32.5t-40.5 -83.5
q0 -49 31.5 -70.5t115.5 -30.5q89 -9 132 -28q62 -27 62 -98q0 -67 -52.5 -109.5t-135.5 -42.5z" />
    <glyph glyph-name="t" unicode="t" horiz-adv-x="364" 
d="M134 454q-1 -6 -1 -33v-210q0 -99 12 -142q18 -64 82 -64q51 0 72 34.5t21 117.5v30v6q-1 3 -1 4q0 21 14 21t14 -21v-25q0 -70 -10 -110q-19 -77 -110 -77q-120 0 -120 172v264q0 32 -4.5 39.5t-24.5 7.5q-6 0 -30 -2l-23 -2q-19 0 -19 14q0 12 18 12q8 0 24 -1.5
t24 -1.5q31 0 38 19q4 11 4 39v5q0 42 2.5 52.5t11.5 10.5q11 0 11 -16v-2l-3 -48q-1 -16 -1 -38t29 -22h33q11 0 33.5 1.5t33.5 1.5q20 0 20 -13t-22 -13h-2l-31 1q-8 0 -33 2q-21 1 -33 1q-27 0 -29 -14z" />
    <glyph glyph-name="u" unicode="u" horiz-adv-x="637" 
d="M481 52v38q-18 -35 -41 -56q-54 -49 -136 -49q-98 0 -144 55q-25 30 -33 73q-4 25 -4 82v146q0 90 -6 109t-35 19q-14 0 -32 -2q-26 -3 -29 -3q-19 0 -19 14q0 12 15 12h3l28 -3h58l10 1l16 2q18 0 18 -37v-6q-1 -8 -1 -23v-232q0 -53 5 -77q7 -40 33 -67q41 -43 118 -43
q102 0 145 71q31 51 31 152v113q0 101 -7.5 114.5t-32.5 13.5q-15 0 -33 -2l-29 -3q-19 0 -19 13t16 13h3l27 -3h50q15 0 21 1.5t13 1.5q19 0 19 -40q0 -14 -1 -20v-30q-1 -28 -1 -53v-202q0 -101 7 -114.5t33 -13.5q3 0 32 3q20 2 31 2q19 0 19 -13t-18 -13h-2l-29 2l-23 1
h-12q-3 0 -10 -1h-12q-7 -1 -17 -1q-15 0 -20 8.5t-5 33.5v13z" />
    <glyph glyph-name="v" unicode="v" horiz-adv-x="565" 
d="M43 465l-18 -1h-17q-25 0 -25 13t19 13q6 0 29 -2q34 -3 73 -3q19 0 35 1l47 3l33 1q19 0 19 -12q0 -14 -20 -14h-3q-22 0 -39 1.5t-23 1.5q-38 0 -38 -22q0 -11 15 -48l147 -360q5 -8 6 -8q4 0 13 22l153 376q4 11 4 17q0 23 -40 23q-10 0 -31 -1.5t-31 -1.5
q-18 0 -18 12q0 14 21 14q19 0 56.5 -2.5t56.5 -2.5q31 0 71 3q12 2 26 2q17 0 17 -11q0 -13 -27 -13h-11q-1 0 -4 1h-5q-26 0 -38.5 -12.5t-30.5 -57.5l-158 -384q-10 -25 -23 -25q-14 0 -27 31l-160 387q-17 40 -26 50t-28 9z" />
    <glyph glyph-name="w" unicode="w" horiz-adv-x="783" 
d="M522 21l-124 414q-2 7 -5 8q-3 0 -6 -8l-3 -9l-113 -402q-10 -35 -29 -35q-20 0 -30 36l-109 387q-9 31 -15 39q-11 14 -36 14h-16q-7 -1 -18 -1q-22 0 -22 14q0 12 22 12q-3 0 31 -2l36 -2q18 -1 34 -1q25 0 69 3q29 2 36 2q20 0 20 -12q0 -15 -28 -15h-3q-14 0 -35 1
t-24 1q-29 0 -29 -21q0 -8 6 -30l101 -363q6 -22 10 -22t7 10l2 9l116 410q8 28 25 28q15 0 22 -24l128 -424q5 -15 8 -15t5 8l4 12l93 351q9 34 9 48q0 26 -49 26q-10 0 -29 -2t-28 -2q-17 0 -17 12q0 14 21 14q9 0 30 -2q31 -3 75 -3q26 0 38 1l37 3l27 1q21 0 21 -12
q0 -14 -20 -14q-7 0 -20 1.5t-20 1.5q-20 0 -26.5 -9.5t-19.5 -56.5l-102 -375q-10 -38 -28 -38q-19 0 -29 33z" />
    <glyph glyph-name="x" unicode="x" 
d="M465 52l-14 14l-129 153q-12 14 -16 14t-16 -14l-141 -164q-9 -11 -9 -21q0 -15 31 -15q12 0 28 1l34 2q23 0 23 -14q0 -13 -19 -13h-3l-37 4q-28 3 -83 3q-40 0 -66 -4q-19 -3 -30 -3q-18 0 -18 12q0 15 22 15q11 0 24 -1q2 0 7 -1h6q26 0 49 26l20 23l148 173
q9 11 9 16q0 4 -9 15l-141 170q-18 24 -49 24h-16l-16 -1h-3q-22 0 -22 12t24 12q5 0 31 -2q52 -4 73 -4q23 0 72 4q25 2 30 2q18 0 18 -12q0 -13 -17 -13q-12 0 -23 2h-22h-18q-30 0 -30 -16q0 -11 25 -40l98 -115q12 -14 16 -14t16 14l109 126q21 24 21 30q0 15 -30 15
q-9 0 -28 -1.5t-28 -1.5q-20 0 -20 13t21 13q15 0 27 -1l35 -3q12 -1 28 -1q43 0 86 3q29 2 27 2q21 0 21 -11q0 -14 -22 -14q-9 0 -13.5 0.5t-10.5 1.5h-7q-35 0 -86 -59l-116 -135q-9 -10 -9 -15t9 -16l159 -186q32 -37 60 -37q6 0 18 1t18 1q21 0 21 -13t-22 -13
q-1 0 -34 3q-44 4 -66 4q-41 0 -74 -4q-25 -3 -30 -3q-23 0 -23 13t22 13q11 0 28 -1q13 -1 22 -2t10 -1q29 0 29 16q0 6 -9 19z" />
    <glyph glyph-name="y" unicode="y" horiz-adv-x="564" 
d="M480 429l-19 -44l-168 -404q-27 -64 -64 -112q-49 -62 -132 -62q-54 0 -90 28.5t-36 71.5q0 21 14.5 37t33.5 16q14 0 24.5 -10t10.5 -24q0 -31 -33 -31q-6 0 -12 3q-2 0 -4 1q-6 0 -6 -10q0 -23 30.5 -42.5t67.5 -19.5q94 0 147 104q17 33 17 48q0 9 -7 27l-154 389
q-16 41 -22 49q-15 21 -44 21q-7 0 -11 -1h-10q-20 0 -20 12q0 14 20 14q-3 0 27 -2q18 -3 65 -3q23 0 65 3q28 2 40 2q25 0 25 -14q0 -12 -22 -12h-3l-27 2q-14 1 -27 1q-40 0 -40 -19q0 -7 4 -19l10 -31l142 -364q5 -13 8 -13t8 13l161 395q4 11 4 15q0 22 -41 22
q-10 0 -29 -1.5t-28 -1.5q-20 0 -20 13q0 14 19 14q-1 0 29 -2q5 -2 31 -3l38 -2q45 0 75 5q26 2 28 2q18 0 18 -12q0 -14 -24 -14h-15q-4 1 -12 1q-18 0 -25.5 -7.5t-16.5 -28.5z" />
    <glyph glyph-name="z" unicode="z" horiz-adv-x="528" 
d="M81 20h313q36 0 43.5 8.5t7.5 49.5q0 20 -1 33l-2 26l-1 29l-1 4q0 35 15 35t15 -27v-5l-2 -24q0 -1 -2 -26q-1 -14 -1 -29v-3l1 -35v-18q1 -9 1 -17q0 -25 -35 -25h-11q-4 1 -22 1h-311q-52 0 -52 22q0 13 32 47l355 378q13 14 13 18t-24 4h-278q-42 0 -49 -21
q-3 -11 -3 -35q0 -1 2 -42l2 -41q0 -22 -14 -22q-13 0 -13 18l1 38v67l-1 34q-1 28 32 28h21q10 -1 25 -1h286q33 0 40.5 -3t7.5 -17t-21 -36l-369 -391q-11 -12 -11 -17t11 -5z" />
    <glyph glyph-name="braceleft" unicode="{" horiz-adv-x="500" 
d="M250 356q0 -47 -13.5 -70.5t-48.5 -37.5q62 -23 62 -111v-194q0 -108 84 -108h9v-19q-76 0 -100 43q-18 32 -18 109v173q0 46 -12 66.5t-46 33.5v16q32 11 45 33t13 66v194q0 133 111 133h7v-19q-52 -4 -72.5 -26.5t-20.5 -75.5v-206z" />
    <glyph glyph-name="bar" unicode="|" horiz-adv-x="500" 
d="M238 -250l-1 1000h26v-1000h-25z" />
    <glyph glyph-name="braceright" unicode="}" horiz-adv-x="500" 
d="M251 143q0 47 13.5 70.5t48.5 37.5q-62 23 -62 111v194q0 108 -84 108h-9v19q76 0 100 -43q18 -32 18 -109v-173q0 -46 12 -66.5t47 -33.5v-16q-33 -11 -46 -33t-13 -66v-194q0 -133 -111 -133h-7v19h9q84 0 84 102v206z" />
    <glyph glyph-name="asciitilde" unicode="~" horiz-adv-x="667" 
d="M221 683q-57 0 -106 -82l-20 12q54 95 126 95q40 0 118 -41q72 -38 106 -38q58 0 107 81l19 -12q-54 -95 -127 -95q-37 0 -137 52q-54 28 -86 28z" />
    <glyph glyph-name="nonbreakingspace" unicode="&#xa0;" horiz-adv-x="250" 
 />
    <glyph glyph-name="exclamdown" unicode="&#xa1;" horiz-adv-x="419" 
d="M210 -197q-18 0 -18 28l4 510q0 24 13 24q15 0 15 -24l3 -510q0 -28 -17 -28zM209 404q-20 0 -33.5 14t-13.5 34t13.5 34t33.5 14q19 0 33 -14t14 -34t-14 -34t-33 -14z" />
    <glyph glyph-name="cent" unicode="&#xa2;" 
d="M524 239q0 -68 -53.5 -114.5t-135.5 -49.5v-97q0 -27 -13 -27q-14 0 -14 31v94q-78 6 -121 40q-91 70 -91 208q0 115 55 184t157 83v98q0 29 14 29q13 0 13 -26v-101q81 -4 130 -44.5t49 -102.5q0 -30 -17 -50.5t-42 -20.5q-17 0 -28.5 10t-11.5 25q0 29 30 29
q11 0 18 -6l7 -6q5 -4 7 -4q13 0 13 28q0 54 -48 89q-39 28 -107 31v-472q144 8 161 130l2 14q3 18 14 18q12 0 12 -20zM308 98v471q-87 -11 -135 -75t-48 -169q0 -104 48.5 -164t134.5 -63z" />
    <glyph glyph-name="sterling" unicode="&#xa3;" horiz-adv-x="637" 
d="M324 169q0 -28 -15 -69q109 -95 172 -95q45 0 75 37t30 92q0 47 -24 76t-63 29q-28 0 -49 -17.5t-26 -44.5q-4 -23 -14 -23q-14 0 -14 18q0 37 31.5 65t73.5 28q51 0 83 -36t32 -94q0 -67 -37 -110t-95 -43q-41 0 -80.5 19t-107.5 72q-61 -91 -152 -91q-52 0 -85 28
t-33 71t31.5 71t78.5 28q62 0 149 -64q9 31 9 56q0 68 -85 197l-120 1q-15 1 -15 13q0 14 16 13l17 -1h91q-33 67 -33 131q0 74 46.5 116.5t126.5 42.5q71 0 117 -35t46 -89q0 -59 -39 -59q-33 0 -33 29q0 15 12 22l11 5q14 6 14 24q0 34 -36.5 57t-90.5 23q-67 0 -106 -36
t-39 -98q0 -61 38 -133h191q33 0 33 -14q0 -12 -30 -12h-180q46 -78 62 -118.5t16 -81.5zM145 5q74 0 128 84q-85 68 -141 68q-32 0 -54.5 -22.5t-22.5 -53.5q0 -34 25 -55t65 -21z" />
    <glyph glyph-name="currency" unicode="&#xa4;" horiz-adv-x="667" 
d="M101 94l-16 17l87 87q-58 65 -58 147q0 78 54 144l-87 88l17 17l87 -88q65 58 148 58q84 0 148 -57l88 87l16 -17l-87 -87q55 -67 55 -145q0 -80 -56 -145l89 -89l-17 -17l-89 90q-64 -57 -147 -57q-81 0 -145 55zM528 345q0 81 -57 138.5t-138 57.5q-80 0 -137.5 -57.5
t-57.5 -138.5t57.5 -138t137.5 -57q81 0 138 57t57 138z" />
    <glyph glyph-name="yen" unicode="&#xa5;" 
d="M503 602l-125 -227h182q15 0 22 -2t7 -9q0 -13 -14 -13h-210l-37 -67q-7 -13 -7 -24v-18h239q15 0 22 -2t7 -9q0 -6 -4.5 -9.5t-9.5 -3.5h-254v-57l2 -74q1 -35 8 -48q10 -20 41 -20q20 0 31.5 1.5t24.5 1.5q21 0 21 -13t-21 -13h-3l-22 2q-12 0 -32 2q-23 3 -31 3
q-11 1 -19 1h-33q-8 0 -18.5 -1t-34.5 -3q-10 -1 -28 -2l-23 -2h-3q-21 0 -21 12q0 14 22 14q16 0 24 -1q15 -2 31 -2q32 0 44 19q8 14 9 49l3 74l1 57h-223q-24 0 -24 13q0 11 22 11h225v21q0 12 -3 17l-4 7l-33 64h-183q-24 0 -24 14q0 5 3.5 7.5t18.5 2.5h173l-118 228
q-22 43 -51 43q-14 0 -23.5 -1t-23.5 -1q-25 0 -25 13t25 13q7 0 32 -3q33 -4 69 -4q37 0 83 5q28 3 33 3q20 0 20 -13q0 -14 -22 -14q-6 0 -40 2l-37 2q-23 0 -23 -13q1 -2 4 -10l5 -11l144 -289q7 -14 15 -14q9 0 16 14l138 262q7 13 14 27q6 11 6 17q0 12 -20 13l-14 1
h-13q-13 -1 -21.5 -1.5t-25.5 -0.5q-32 0 -32 13t22 13q5 0 40 -4t77 -4q6 0 44 2q13 0 32 2.5t26 2.5q19 0 19 -13t-26 -13q-2 0 -7 1h-8l-22 2q-27 0 -51 -43z" />
    <glyph glyph-name="section" unicode="&#xa7;" 
d="M508 254q0 -86 -108 -143q47 -31 65.5 -58.5t18.5 -68.5q0 -64 -50 -102.5t-133 -38.5q-84 0 -136.5 40.5t-52.5 104.5q0 60 48 60q35 0 35 -34q0 -18 -18 -31l-15 -11q-11 -6 -11 -23q0 -32 46 -57t106 -25q67 0 109 31.5t42 81.5q0 42 -23 69t-87 59q-14 8 -61 32
q-78 40 -113 67q-47 37 -47 90q0 86 112 144q-78 42 -78 109q0 59 48 96t125 37q74 0 123.5 -33.5t49.5 -85.5q0 -50 -40 -50q-14 0 -24 10.5t-10 24.5q0 18 17 29t17 19q0 26 -39 45t-91 19q-64 0 -105 -30.5t-41 -78.5q0 -51 52 -83q24 -15 97 -50q88 -42 122 -70
q50 -41 50 -95zM374 125q106 56 106 126q0 58 -73 100q-29 16 -77 40l-71 35q-107 -56 -107 -125q0 -38 23.5 -61t108.5 -68z" />
    <glyph glyph-name="dieresis" unicode="&#xa8;" horiz-adv-x="491" 
d="M334 662q15 0 26 -11t11 -27q0 -15 -10.5 -26t-26.5 -11t-27 11t-11 27q0 15 11 26t27 11zM158 661q15 0 26 -10.5t11 -25.5q0 -16 -11 -27t-27 -11q-15 0 -26 11t-11 26q0 16 11 26.5t27 10.5z" />
    <glyph glyph-name="copyright" unicode="&#xa9;" horiz-adv-x="812" 
d="M406 686q146 0 249.5 -103.5t103.5 -249.5t-103.5 -249t-249.5 -103t-249.5 103t-103.5 249t103.5 249.5t249.5 103.5zM406 3q137 0 233.5 97t96.5 233q0 137 -96.5 233.5t-233.5 96.5t-233.5 -96.5t-96.5 -233.5q0 -136 97 -233t233 -97zM411 546q85 0 122 -66v19
q-1 10 -1 12q0 21 13 21q10 0 10 -13q0 7 -2 -23t-2 -66q0 -32 1 -40q2 -17 2 -19q0 -14 -12 -14t-12 17q0 6 1 18.5t1 18.5q0 52 -33 83.5t-89 31.5q-71 0 -112.5 -53t-41.5 -144q0 -87 41 -136.5t113 -49.5q59 0 94 31t37 86q1 27 14 27q12 0 12 -16q0 -65 -44.5 -106.5
t-113.5 -41.5q-82 0 -130 57t-48 155q0 95 49.5 153t130.5 58z" />
    <glyph glyph-name="ordfeminine" unicode="&#xaa;" horiz-adv-x="426" 
d="M323 392q-43 0 -47 54q-37 -54 -104 -54q-41 0 -67 21t-26 55q0 74 115 81q80 5 80 50q0 25 -20 40t-54 15q-35 0 -58.5 -14t-23.5 -36q0 -5 2 -6v1l1 3q6 11 18 11q20 0 20 -20q0 -26 -28 -26q-14 0 -24.5 10t-10.5 24q0 30 29.5 50.5t73.5 20.5q98 0 98 -91v-103
q0 -34 1 -42q5 -27 25 -27q27 0 27 36v3l-1 23q-1 19 11 19q10 0 10 -14v-21q0 -63 -47 -63zM76 330h298v-33h-298v33zM276 507v51q-22 -24 -83 -28q-92 -6 -92 -62q0 -26 20.5 -42.5t52.5 -16.5q43 0 72.5 28.5t29.5 69.5z" />
    <glyph glyph-name="guillemotleft" unicode="&#xab;" horiz-adv-x="364" 
d="M208 259q0 -7 6 -18l80 -143q6 -14 6 -16q0 -10 -12 -10q-7 0 -16 15l-92 154q-7 12 -7 18q0 5 7 17l92 154q9 15 16 15q12 0 12 -10q0 -4 -6 -15l-80 -144q-6 -11 -6 -17zM81 259q0 -6 5 -18l80 -143q6 -11 6 -16q0 -10 -11 -10q-8 0 -17 15l-92 154q-6 11 -6 18t6 17
l92 154q9 15 17 15q11 0 11 -10q0 -4 -6 -15l-80 -144q-5 -12 -5 -17z" />
    <glyph glyph-name="logicalnot" unicode="&#xac;" horiz-adv-x="500" 
d="M467 0h-25v244h-409v23h434v-267z" />
    <glyph glyph-name="softhyphen" unicode="&#xad;" horiz-adv-x="549" 
d="M46 205v62h457v-62h-457z" />
    <glyph glyph-name="softhyphen" unicode="&#x2212;" horiz-adv-x="549" 
d="M46 205v62h457v-62h-457z" />
    <glyph glyph-name="registered" unicode="&#xae;" horiz-adv-x="500" 
d="M250 752q83 0 141.5 -58.5t58.5 -141.5q0 -82 -58.5 -141t-141.5 -59q-82 0 -141 59t-59 141q0 83 59 141.5t141 58.5zM250 373q74 0 126.5 52.5t52.5 126.5t-52.5 126.5t-126.5 52.5t-126.5 -52.5t-52.5 -126.5t52.5 -126.5t126.5 -52.5zM335 609q0 -36 -32 -52
q20 -17 20 -56v-19q0 -19 11 -19q15 0 15 33v8q-1 7 -1 21v1q0 14 10 14q13 0 12 -14l-1 -19v-24q0 -41 -35 -41q-33 0 -33 44v23q0 26 -11 33t-40 7h-45v-45l1 -23q1 -15 9 -15q3 0 8 1h9q13 0 13 -11t-14 -11q-5 0 -16 1.5t-16 1.5h-9q-6 0 -17 -1.5t-16 -1.5
q-13 0 -13 11t13 11h8q3 -1 9 -1q9 0 9 15v152q0 15 -9 15q-2 0 -8.5 -1t-8.5 -1q-13 0 -13 11t13 11q5 0 8 -1h9q9 -1 16 -1h26l21 1q21 1 20 1q78 0 78 -59zM205 632v-63h57q50 0 50 39t-63 39h-14q-11 -1 -19 -1h-2q-7 0 -8 -1.5t-1 -12.5z" />
    <glyph glyph-name="macron" unicode="&#xaf;" horiz-adv-x="491" 
d="M401 632q0 -13 -20 -13h-274q-17 0 -17 13t18 13h273q20 0 20 -13z" />
    <glyph glyph-name="macron" unicode="&#x2c9;" horiz-adv-x="491" 
d="M401 632q0 -13 -20 -13h-274q-17 0 -17 13t18 13h273q20 0 20 -13z" />
    <glyph glyph-name="degree" unicode="&#xb0;" horiz-adv-x="500" 
d="M250 422q-55 0 -93 37.5t-38 90.5t38 90t93 37q54 0 92.5 -37.5t38.5 -89.5q0 -53 -38.5 -90.5t-92.5 -37.5zM250 656q-45 0 -77 -31t-32 -75t32 -75.5t77 -31.5t77 31.5t32 75.5t-32 75t-77 31z" />
    <glyph glyph-name="plusminus" unicode="&#xb1;" horiz-adv-x="500" 
d="M32 336v24h206v187h25v-187h205v-24h-206v-186h-24v186h-206zM32 79v24h436v-24h-436z" />
    <glyph glyph-name="acute" unicode="&#xb4;" horiz-adv-x="491" 
d="M363 684q0 -8 -18 -21l-131 -92q-9 -6 -15 -6q-10 0 -10 9q0 8 10 15l129 96q15 11 22 11q13 0 13 -12z" />
    <glyph glyph-name="mu" unicode="&#xb5;" horiz-adv-x="500" 
d="M88 -163h-25v641h25v-285q0 -69 14.5 -104.5t51.5 -58.5t85 -23q74 0 121 55.5t47 144.5v271h25v-478h-24v110q-24 -54 -50 -79q-48 -46 -120 -46q-96 0 -150 84v-232z" />
    <glyph glyph-name="mu" unicode="&#x3bc;" horiz-adv-x="500" 
d="M88 -163h-25v641h25v-285q0 -69 14.5 -104.5t51.5 -58.5t85 -23q74 0 121 55.5t47 144.5v271h25v-478h-24v110q-24 -54 -50 -79q-48 -46 -120 -46q-96 0 -150 84v-232z" />
    <glyph glyph-name="paragraph" unicode="&#xb6;" horiz-adv-x="509" 
d="M245 -104h-25v413h-18q-81 0 -133.5 50t-52.5 128q0 55 29.5 100t75.5 62.5t107 17.5h213v-22h-49v-749h-24v749h-123v-749z" />
    <glyph glyph-name="periodcentered" unicode="&#xb7;" horiz-adv-x="105" 
d="M52 405q22 0 37.5 -15t15.5 -36q0 -22 -15 -37t-37 -15t-37.5 15.5t-15.5 36.5t15 36t37 15z" />
    <glyph glyph-name="periodcentered" unicode="&#x2219;" horiz-adv-x="105" 
d="M52 405q22 0 37.5 -15t15.5 -36q0 -22 -15 -37t-37 -15t-37.5 15.5t-15.5 36.5t15 36t37 15z" />
    <glyph glyph-name="cedilla" unicode="&#xb8;" horiz-adv-x="492" 
d="M204 -63l29 63h27l-26 -60q28 6 47 6q37 0 60 -18t23 -46q0 -31 -29 -51t-73 -20q-58 0 -90 30q-10 9 -10 18q0 10 14 10q6 0 14 -6l6 -8q18 -24 66 -24q32 0 52.5 15t20.5 37q0 42 -65 42q-21 0 -42 -10q-10 -5 -17 -5q-4 0 -8.5 3.5t-4.5 7.5q0 3 6 16z" />
    <glyph glyph-name="ordmasculine" unicode="&#xba;" horiz-adv-x="426" 
d="M212 672q59 0 96 -39.5t37 -102.5q0 -61 -37.5 -99.5t-96.5 -38.5q-57 0 -93.5 40t-36.5 103q0 60 36.5 98.5t94.5 38.5zM82 330h262v-33h-262v33zM212 409q49 0 80 33.5t31 86.5q0 56 -30.5 90.5t-79.5 34.5q-50 0 -80 -32.5t-30 -87.5q0 -56 30 -90.5t79 -34.5z" />
    <glyph glyph-name="guillemotright" unicode="&#xbb;" horiz-adv-x="364" 
d="M155 259q0 8 -5 17l-80 144q-6 11 -6 15q0 10 11 10q8 0 17 -15l92 -154q7 -12 7 -17q0 -6 -7 -18l-92 -154q-9 -15 -17 -15q-11 0 -11 10q0 5 6 16l80 143q5 12 5 18zM283 259q0 6 -6 17l-80 144q-6 14 -6 15q0 10 12 10q7 0 16 -15l92 -154q7 -12 7 -17q0 -6 -7 -18
l-92 -154q-9 -15 -16 -15q-12 0 -12 10q0 5 6 16l80 143q6 11 6 18z" />
    <glyph glyph-name="questiondown" unicode="&#xbf;" horiz-adv-x="564" 
d="M408 37v-1l5 -11q2 -4 2 -8q0 -13 -9.5 -22t-21.5 -9q-13 0 -22.5 10.5t-9.5 24.5q0 22 17.5 36t44.5 14q41 0 66.5 -26.5t25.5 -68.5q0 -76 -67 -124.5t-171 -48.5t-166 47t-62 127q0 89 76 138q32 21 80 42q66 29 86 59t20 100q0 7 -1 10v6q0 28 14 28q17 0 17 -37
q0 -72 -18 -107q-21 -41 -93.5 -75t-99 -55.5t-40.5 -55.5q-10 -24 -10 -53q0 -70 53 -111t145 -41t151 42.5t59 109.5q0 29 -16.5 50t-38.5 21q-16 0 -16 -11zM313 404q-20 0 -33.5 14t-13.5 34t14 34t34 14q19 0 33 -14.5t14 -33.5t-14 -33.5t-34 -14.5z" />
    <glyph glyph-name="Agrave" unicode="&#xc0;" horiz-adv-x="728" 
d="M133 90l13 35l199 511q13 34 29 34q17 0 28 -29l148 -408q54 -149 74 -185q14 -26 42 -26q7 0 20 1t20 1q23 0 23 -12q0 -7 -6.5 -11t-15.5 -4q-13 0 -33 3q-33 5 -74 5q-40 0 -62 -3l-44 -6h-5q-27 0 -27 14q0 15 25 15q1 0 28 -2t30 -2q39 0 39 30q0 14 -9 39l-19 52
l-34 89q-2 6 -8 15q-3 2 -16 2h-258q-13 0 -16.5 -2t-8.5 -15l-54 -139q-3 -9 -8 -21q-4 -8 -4 -19q0 -30 51 -30q9 0 30 1q6 1 20 1h1q23 0 23 -12q0 -13 -21 -13q-4 0 -44.5 3t-86.5 3q-39 0 -67 -4t-36 -4q-20 0 -20 14t21 14q7 0 20 -1.5t20 -1.5q48 0 73 68zM294 849
q8 0 23 -11l129 -95q10 -7 10 -15q0 -10 -10 -10q-5 0 -15 7l-132 92q-18 13 -18 20q0 12 13 12zM499 295l-126 342l-133 -342q-4 -10 -4 -15q0 -12 22 -12h223q22 0 22 12q0 4 -4 15z" />
    <glyph glyph-name="Aacute" unicode="&#xc1;" horiz-adv-x="728" 
d="M133 90l13 35l199 511q13 34 29 34q17 0 28 -29l148 -408q54 -149 74 -185q14 -26 42 -26q7 0 20 1t20 1q23 0 23 -12q0 -7 -6.5 -11t-15.5 -4q-13 0 -33 3q-33 5 -74 5q-40 0 -62 -3l-44 -6h-5q-27 0 -27 14q0 15 25 15q1 0 28 -2t30 -2q39 0 39 30q0 14 -9 39l-19 52
l-34 89q-2 6 -8 15q-3 2 -16 2h-258q-13 0 -16.5 -2t-8.5 -15l-54 -139q-3 -9 -8 -21q-4 -8 -4 -19q0 -30 51 -30q9 0 30 1q6 1 20 1h1q23 0 23 -12q0 -13 -21 -13q-4 0 -44.5 3t-86.5 3q-39 0 -67 -4t-36 -4q-20 0 -20 14t21 14q7 0 20 -1.5t20 -1.5q48 0 73 68zM451 838
q0 -8 -18 -21l-131 -92q-10 -7 -15 -7q-10 0 -10 10q0 8 10 15l128 95q15 11 23 11q13 0 13 -11zM499 295l-126 342l-133 -342q-4 -10 -4 -15q0 -12 22 -12h223q22 0 22 12q0 4 -4 15z" />
    <glyph glyph-name="Acircumflex" unicode="&#xc2;" horiz-adv-x="728" 
d="M133 90l13 35l199 511q13 34 29 34q17 0 28 -29l148 -408q54 -149 74 -185q14 -26 42 -26q7 0 20 1t20 1q23 0 23 -12q0 -7 -6.5 -11t-15.5 -4q-13 0 -33 3q-33 5 -74 5q-40 0 -62 -3l-44 -6h-5q-27 0 -27 14q0 15 25 15q1 0 28 -2t30 -2q39 0 39 30q0 14 -9 39l-19 52
l-34 89q-2 6 -8 15q-3 2 -16 2h-258q-13 0 -16.5 -2t-8.5 -15l-54 -139q-3 -9 -8 -21q-4 -8 -4 -19q0 -30 51 -30q9 0 30 1q6 1 20 1h1q23 0 23 -12q0 -13 -21 -13q-4 0 -44.5 3t-86.5 3q-39 0 -67 -4t-36 -4q-20 0 -20 14t21 14q7 0 20 -1.5t20 -1.5q48 0 73 68zM499 723
l-133 78l-137 -76q-9 -5 -10 -5q-4 -2 -6 -2q-9 0 -9 8t16 18l139 83q4 2 6 2q4 0 16 -7l130 -79q13 -8 13 -15q0 -10 -10 -10q-8 0 -15 5zM499 295l-126 342l-133 -342q-4 -10 -4 -15q0 -12 22 -12h223q22 0 22 12q0 4 -4 15z" />
    <glyph glyph-name="Atilde" unicode="&#xc3;" horiz-adv-x="728" 
d="M133 90l13 35l199 511q13 34 29 34q17 0 28 -29l148 -408q54 -149 74 -185q14 -26 42 -26q7 0 20 1t20 1q23 0 23 -12q0 -7 -6.5 -11t-15.5 -4q-13 0 -33 3q-33 5 -74 5q-40 0 -62 -3l-44 -6h-5q-27 0 -27 14q0 15 25 15q1 0 28 -2t30 -2q39 0 39 30q0 14 -9 39l-19 52
l-34 89q-2 6 -8 15q-3 2 -16 2h-258q-13 0 -16.5 -2t-8.5 -15l-54 -139q-3 -9 -8 -21q-4 -8 -4 -19q0 -30 51 -30q9 0 30 1q6 1 20 1h1q23 0 23 -12q0 -13 -21 -13q-4 0 -44.5 3t-86.5 3q-39 0 -67 -4t-36 -4q-20 0 -20 14t21 14q7 0 20 -1.5t20 -1.5q48 0 73 68zM277 793
q-28 0 -48 -22l-6 -5q-4 -4 -7 -4q-6 0 -6 6q0 5 15 20q31 30 71 30q27 0 70 -14q52 -17 75 -17q34 0 54 19l9 9q4 4 8 4q6 0 6 -5q0 -7 -14 -20q-41 -37 -81 -37q-24 0 -71 17l-4 1q-50 18 -71 18zM499 295l-126 342l-133 -342q-4 -10 -4 -15q0 -12 22 -12h223q22 0 22 12
q0 4 -4 15z" />
    <glyph glyph-name="Adieresis" unicode="&#xc4;" horiz-adv-x="728" 
d="M133 90l13 35l199 511q13 34 29 34q17 0 28 -29l148 -408q54 -149 74 -185q14 -26 42 -26q7 0 20 1t20 1q23 0 23 -12q0 -7 -6.5 -11t-15.5 -4q-13 0 -33 3q-33 5 -74 5q-40 0 -62 -3l-44 -6h-5q-27 0 -27 14q0 15 25 15q1 0 28 -2t30 -2q39 0 39 30q0 14 -9 39l-19 52
l-34 89q-2 6 -8 15q-3 2 -16 2h-258q-13 0 -16.5 -2t-8.5 -15l-54 -139q-3 -9 -8 -21q-4 -8 -4 -19q0 -30 51 -30q9 0 30 1q6 1 20 1h1q23 0 23 -12q0 -13 -21 -13q-4 0 -44.5 3t-86.5 3q-39 0 -67 -4t-36 -4q-20 0 -20 14t21 14q7 0 20 -1.5t20 -1.5q48 0 73 68zM459 825
q15 0 26 -11t11 -27q0 -15 -10.5 -26t-26.5 -11t-27 11t-11 27q0 15 11 26t27 11zM282 824q16 0 27 -10.5t11 -25.5q0 -16 -11 -27t-27 -11q-15 0 -26 11t-11 26q0 16 11 26.5t26 10.5zM499 295l-126 342l-133 -342q-4 -10 -4 -15q0 -12 22 -12h223q22 0 22 12q0 4 -4 15z
" />
    <glyph glyph-name="Aring" unicode="&#xc5;" horiz-adv-x="728" 
d="M133 90l13 35l199 511q13 34 29 34q17 0 28 -29l148 -408q54 -149 74 -185q14 -26 42 -26q7 0 20 1t20 1q23 0 23 -12q0 -7 -6.5 -11t-15.5 -4q-13 0 -33 3q-33 5 -74 5q-40 0 -62 -3l-44 -6h-5q-27 0 -27 14q0 15 25 15q1 0 28 -2t30 -2q39 0 39 30q0 14 -9 39l-19 52
l-34 89q-2 6 -8 15q-3 2 -16 2h-258q-13 0 -16.5 -2t-8.5 -15l-54 -139q-3 -9 -8 -21q-4 -8 -4 -19q0 -30 51 -30q9 0 30 1q6 1 20 1h1q23 0 23 -12q0 -13 -21 -13q-4 0 -44.5 3t-86.5 3q-39 0 -67 -4t-36 -4q-20 0 -20 14t21 14q7 0 20 -1.5t20 -1.5q48 0 73 68zM377 889
q34 0 57.5 -23.5t23.5 -56.5q0 -35 -24 -59t-58 -24t-58 24t-24 58t24 57.5t59 23.5zM499 295l-126 342l-133 -342q-4 -10 -4 -15q0 -12 22 -12h223q22 0 22 12q0 4 -4 15zM377 752q22 0 38 16t16 39q0 24 -15.5 40.5t-38.5 16.5t-39.5 -16.5t-16.5 -39.5q0 -22 17 -39
t39 -17z" />
    <glyph glyph-name="AE" unicode="&#xc6;" horiz-adv-x="1092" 
d="M654 26l253 1q57 1 72.5 17t15.5 76q0 32 -1 47l-3 49q0 28 15 28q13 0 13 -26v-5q-3 -34 -3 -48l-1 -52q-1 -41 -1 -37l2 -40q0 -38 -47 -38q-18 0 -79 4q-22 1 -108 3q-54 1 -108 1h-96l-25 -1l-25 -3l-30 -3l-24 -2h-5q-27 0 -27 14q0 15 25 15h6l27 -3q18 -2 33 -2
q30 0 38 21q4 11 4 49v11v70l1 71v68q0 16 -5.5 20t-26.5 4h-188q-23 0 -33 -10q-1 -1 -17 -23l-190 -255q-6 -6 -6 -11q0 -13 29 -13h3l35 1l39 2q26 0 26 -15q0 -13 -20 -13q-8 0 -52 5q-18 2 -57 2q-64 0 -103 -6q-20 -3 -29 -3q-21 0 -21 14q0 13 23 13q9 0 26 -1.5
t26 -1.5q18 0 28 7.5t31 35.5l441 594q6 8 19 8h8q2 0 30 -1l38 -1h108q57 0 162 5l70 3q33 0 33 -32v-4l-2 -40v-39l1 -53q1 -27 2 -60q1 -2 1 -7q0 -30 -15 -30q-16 0 -16 30v6q1 16 3 61l1 62q0 47 -11 62.5t-44 15.5h-247q-48 0 -59 -6.5t-12 -35.5l-1 -26v-188
q0 -21 6 -26.5t19 -5.5h138q63 0 63 60q0 12 -1 26q-2 27 -2 39q0 29 14 29t14 -27v-3q-1 -1 -1 -2l-4 -57q-2 -28 -2 -66q0 -45 2 -69l7 -85v-4q0 -29 -15 -29q-14 0 -14 32v4q0 13 2 38.5t2 38.5q0 31 -17 43t-59 12h-127q-25 0 -25 -24v-253q0 -21 8.5 -26.5t41.5 -5.5z
M561 638q-10 0 -28 -24l-162 -222q-17 -17 -17 -26q0 -11 30 -11h156q27 0 33 10q3 7 3 23v216q0 34 -15 34z" />
    <glyph glyph-name="Ccedilla" unicode="&#xc7;" horiz-adv-x="637" 
d="M539 570l6 -13v16l-2 30v27l-1 3q0 29 15 29q12 0 12 -16q0 -8 -2 -38q-5 -76 -5 -113q0 -49 2 -69q3 -30 3 -31q0 -18 -13 -18q-15 0 -15 23q0 17 1 31q2 27 2 32q0 91 -56 145.5t-149 54.5q-126 0 -190 -94q-68 -99 -68 -246q0 -150 69 -235t191 -85q98 0 156 54.5
t62 149.5q2 40 17 40t15 -20q0 -106 -70 -176t-177 -70h-17l-24 -72q31 9 52 9q44 0 70.5 -18.5t26.5 -49.5q0 -38 -35.5 -65.5t-85.5 -27.5q-54 0 -90 31q-10 9 -10 17t9 8q6 0 15 -8q29 -26 78 -26q37 0 63 19t26 47q0 51 -68 51q-26 0 -51 -11q-9 -3 -14 -3q-13 0 -13 14
q0 3 2 9l25 77q-62 10 -96 27q-81 40 -122 139q-34 82 -34 186q0 159 79 255.5t210 96.5q98 0 156 -54q19 -18 45 -62z" />
    <glyph glyph-name="Egrave" unicode="&#xc8;" horiz-adv-x="674" 
d="M549 -4l-87 3l-128 1l-112 3h-61l-28 1q-7 0 -22 -1q-9 0 -29 -2l-25 -2h-4q-28 0 -28 15q0 16 25 16q4 0 6 -1l27 -3q18 -2 33 -2q30 0 38 24q4 11 4 50v8q0 6 1 63v71v189v71l-1 71q0 40 -4 50q-7 24 -38 24q-15 0 -33 -2l-27 -3h-5q-26 0 -26 15q0 14 27 14q6 0 5 0
q60 -4 77 -4l328 1l86 5h6q33 0 33 -31q0 -10 -1 -39t-1 -66q0 -59 3 -91v-6q0 -35 -15 -35t-15 30v8q2 21 3 42l1 38l2 39v9q0 53 -15 64.5t-84 11.5h-217q-43 0 -52 -13.5t-9 -81.5l1 -160q1 -22 7 -26.5t35 -4.5h105q79 0 79 52v3l-1 28l-2 38q0 27 13 27q14 0 14 -28
q0 -7 -3 -39q-5 -52 -5 -89q0 -86 9 -152v-9q0 -28 -14 -28q-16 0 -16 32v5l3 36l2 33v7q0 37 -17 50.5t-62 13.5h-111q-26 0 -31.5 -6.5t-5.5 -34.5v-212q0 -28 1 -34q4 -20 19 -25q10 -3 56 -3h185q90 0 109.5 16.5t19.5 90.5q0 25 -1 44l-2 41q0 30 14 30q13 0 13 -25v-4
l-3 -31q0 -14 -1.5 -41.5t-1.5 -41.5v-58q0 -29 -9.5 -39.5t-36.5 -9.5zM241 849q7 0 22 -11l129 -95q10 -7 10 -15q0 -10 -10 -10q-5 0 -15 7l-132 92q-18 13 -18 20q0 12 14 12z" />
    <glyph glyph-name="Eacute" unicode="&#xc9;" horiz-adv-x="674" 
d="M549 -4l-87 3l-128 1l-112 3h-61l-28 1q-7 0 -22 -1q-9 0 -29 -2l-25 -2h-4q-28 0 -28 15q0 16 25 16q4 0 6 -1l27 -3q18 -2 33 -2q30 0 38 24q4 11 4 50v8q0 6 1 63v71v189v71l-1 71q0 40 -4 50q-7 24 -38 24q-15 0 -33 -2l-27 -3h-5q-26 0 -26 15q0 14 27 14q6 0 5 0
q60 -4 77 -4l328 1l86 5h6q33 0 33 -31q0 -10 -1 -39t-1 -66q0 -59 3 -91v-6q0 -35 -15 -35t-15 30v8q2 21 3 42l1 38l2 39v9q0 53 -15 64.5t-84 11.5h-217q-43 0 -52 -13.5t-9 -81.5l1 -160q1 -22 7 -26.5t35 -4.5h105q79 0 79 52v3l-1 28l-2 38q0 27 13 27q14 0 14 -28
q0 -7 -3 -39q-5 -52 -5 -89q0 -86 9 -152v-9q0 -28 -14 -28q-16 0 -16 32v5l3 36l2 33v7q0 37 -17 50.5t-62 13.5h-111q-26 0 -31.5 -6.5t-5.5 -34.5v-212q0 -28 1 -34q4 -20 19 -25q10 -3 56 -3h185q90 0 109.5 16.5t19.5 90.5q0 25 -1 44l-2 41q0 30 14 30q13 0 13 -25v-4
l-3 -31q0 -14 -1.5 -41.5t-1.5 -41.5v-58q0 -29 -9.5 -39.5t-36.5 -9.5zM438 838q0 -8 -19 -21l-131 -92q-10 -7 -15 -7q-10 0 -10 10q0 8 10 15l129 95q15 11 22 11q14 0 14 -11z" />
    <glyph glyph-name="Ecircumflex" unicode="&#xca;" horiz-adv-x="674" 
d="M549 -4l-87 3l-128 1l-112 3h-61l-28 1q-7 0 -22 -1q-9 0 -29 -2l-25 -2h-4q-28 0 -28 15q0 16 25 16q4 0 6 -1l27 -3q18 -2 33 -2q30 0 38 24q4 11 4 50v8q0 6 1 63v71v189v71l-1 71q0 40 -4 50q-7 24 -38 24q-15 0 -33 -2l-27 -3h-5q-26 0 -26 15q0 14 27 14q6 0 5 0
q60 -4 77 -4l328 1l86 5h6q33 0 33 -31q0 -10 -1 -39t-1 -66q0 -59 3 -91v-6q0 -35 -15 -35t-15 30v8q2 21 3 42l1 38l2 39v9q0 53 -15 64.5t-84 11.5h-217q-43 0 -52 -13.5t-9 -81.5l1 -160q1 -22 7 -26.5t35 -4.5h105q79 0 79 52v3l-1 28l-2 38q0 27 13 27q14 0 14 -28
q0 -7 -3 -39q-5 -52 -5 -89q0 -86 9 -152v-9q0 -28 -14 -28q-16 0 -16 32v5l3 36l2 33v7q0 37 -17 50.5t-62 13.5h-111q-26 0 -31.5 -6.5t-5.5 -34.5v-212q0 -28 1 -34q4 -20 19 -25q10 -3 56 -3h185q90 0 109.5 16.5t19.5 90.5q0 25 -1 44l-2 41q0 30 14 30q13 0 13 -25v-4
l-3 -31q0 -14 -1.5 -41.5t-1.5 -41.5v-58q0 -29 -9.5 -39.5t-36.5 -9.5zM448 723l-133 78l-137 -76q-9 -5 -10 -5q-4 -2 -6 -2q-9 0 -9 8t16 18l139 83q4 2 6 2q4 0 16 -7l130 -79q13 -8 13 -15q0 -10 -10 -10q-8 0 -15 5z" />
    <glyph glyph-name="Edieresis" unicode="&#xcb;" horiz-adv-x="674" 
d="M549 -4l-87 3l-128 1l-112 3h-61l-28 1q-7 0 -22 -1q-9 0 -29 -2l-25 -2h-4q-28 0 -28 15q0 16 25 16q4 0 6 -1l27 -3q18 -2 33 -2q30 0 38 24q4 11 4 50v8q0 6 1 63v71v189v71l-1 71q0 40 -4 50q-7 24 -38 24q-15 0 -33 -2l-27 -3h-5q-26 0 -26 15q0 14 27 14q6 0 5 0
q60 -4 77 -4l328 1l86 5h6q33 0 33 -31q0 -10 -1 -39t-1 -66q0 -59 3 -91v-6q0 -35 -15 -35t-15 30v8q2 21 3 42l1 38l2 39v9q0 53 -15 64.5t-84 11.5h-217q-43 0 -52 -13.5t-9 -81.5l1 -160q1 -22 7 -26.5t35 -4.5h105q79 0 79 52v3l-1 28l-2 38q0 27 13 27q14 0 14 -28
q0 -7 -3 -39q-5 -52 -5 -89q0 -86 9 -152v-9q0 -28 -14 -28q-16 0 -16 32v5l3 36l2 33v7q0 37 -17 50.5t-62 13.5h-111q-26 0 -31.5 -6.5t-5.5 -34.5v-212q0 -28 1 -34q4 -20 19 -25q10 -3 56 -3h185q90 0 109.5 16.5t19.5 90.5q0 25 -1 44l-2 41q0 30 14 30q13 0 13 -25v-4
l-3 -31q0 -14 -1.5 -41.5t-1.5 -41.5v-58q0 -29 -9.5 -39.5t-36.5 -9.5zM414 825q16 0 27 -11t11 -27q0 -15 -11 -26t-26 -11q-16 0 -27 11t-11 27q0 15 11 26t26 11zM238 824q16 0 27 -10.5t11 -25.5q0 -16 -11 -27t-27 -11t-26.5 11t-10.5 26q0 37 37 37z" />
    <glyph glyph-name="Igrave" unicode="&#xcc;" horiz-adv-x="347" 
d="M187 437l2 -349q1 -36 8 -48q10 -20 42 -20q9 0 30 1q7 0 15 1t10 1q21 0 21 -14q0 -13 -21 -13h-3l-23 2q-8 0 -28 2q-42 4 -59 4h-16q-23 0 -59 -4t-54 -4q-21 0 -21 12q0 15 21 15q2 0 10 -1t15 -1q21 -1 30 -1q32 0 42 20q7 12 8 48l2 74l-2 418q-1 35 -8 48
q-10 20 -41 20q-8 0 -31 -2q-11 -1 -25 -1q-21 0 -21 13t21 13h3l23 -2q7 0 28 -2q41 -4 59 -4h16q18 0 59 4q21 2 29 2l22 2h4q20 0 20 -12q0 -14 -21 -14q-12 0 -24 1q-24 2 -32 2q-31 0 -41 -19q-8 -13 -8 -49zM104 849q7 0 22 -11l129 -95q10 -7 10 -15q0 -10 -10 -10
q-5 0 -15 7l-132 92q-18 13 -18 20q0 12 14 12z" />
    <glyph glyph-name="Iacute" unicode="&#xcd;" horiz-adv-x="347" 
d="M187 437l2 -349q1 -36 8 -48q10 -20 42 -20q9 0 30 1q7 0 15 1t10 1q21 0 21 -14q0 -13 -21 -13h-3l-23 2q-8 0 -28 2q-42 4 -59 4h-16q-23 0 -59 -4t-54 -4q-21 0 -21 12q0 15 21 15q2 0 10 -1t15 -1q21 -1 30 -1q32 0 42 20q7 12 8 48l2 74l-2 418q-1 35 -8 48
q-10 20 -41 20q-8 0 -31 -2q-11 -1 -25 -1q-21 0 -21 13t21 13h3l23 -2q7 0 28 -2q41 -4 59 -4h16q18 0 59 4q21 2 29 2l22 2h4q20 0 20 -12q0 -14 -21 -14q-12 0 -24 1q-24 2 -32 2q-31 0 -41 -19q-8 -13 -8 -49zM261 838q0 -8 -19 -21l-131 -92q-10 -7 -15 -7
q-10 0 -10 10q0 8 10 15l129 95q15 11 22 11q14 0 14 -11z" />
    <glyph glyph-name="Icircumflex" unicode="&#xce;" horiz-adv-x="347" 
d="M187 437l2 -349q1 -36 8 -48q10 -20 42 -20q9 0 30 1q7 0 15 1t10 1q21 0 21 -14q0 -13 -21 -13h-3l-23 2q-8 0 -28 2q-42 4 -59 4h-16q-23 0 -59 -4t-54 -4q-21 0 -21 12q0 15 21 15q2 0 10 -1t15 -1q21 -1 30 -1q32 0 42 20q7 12 8 48l2 74l-2 418q-1 35 -8 48
q-10 20 -41 20q-8 0 -31 -2q-11 -1 -25 -1q-21 0 -21 13t21 13h3l23 -2q7 0 28 -2q41 -4 59 -4h16q18 0 59 4q21 2 29 2l22 2h4q20 0 20 -12q0 -14 -21 -14q-12 0 -24 1q-24 2 -32 2q-31 0 -41 -19q-8 -13 -8 -49zM308 723l-132 78l-138 -76q-9 -5 -10 -5q-4 -2 -6 -2
q-9 0 -9 8t16 18l139 83q4 2 6 2q4 0 16 -7l130 -79q13 -8 13 -15q0 -10 -10 -10q-8 0 -15 5z" />
    <glyph glyph-name="Idieresis" unicode="&#xcf;" horiz-adv-x="347" 
d="M187 437l2 -349q1 -36 8 -48q10 -20 42 -20q9 0 30 1q7 0 15 1t10 1q21 0 21 -14q0 -13 -21 -13h-3l-23 2q-8 0 -28 2q-42 4 -59 4h-16q-23 0 -59 -4t-54 -4q-21 0 -21 12q0 15 21 15q2 0 10 -1t15 -1q21 -1 30 -1q32 0 42 20q7 12 8 48l2 74l-2 418q-1 35 -8 48
q-10 20 -41 20q-8 0 -31 -2q-11 -1 -25 -1q-21 0 -21 13t21 13h3l23 -2q7 0 28 -2q41 -4 59 -4h16q18 0 59 4q21 2 29 2l22 2h4q20 0 20 -12q0 -14 -21 -14q-12 0 -24 1q-24 2 -32 2q-31 0 -41 -19q-8 -13 -8 -49zM261 825q16 0 26.5 -11t10.5 -27q0 -15 -10.5 -26
t-25.5 -11q-16 0 -27 11t-11 27q0 15 11 26t26 11zM85 824q16 0 26.5 -10.5t10.5 -25.5q0 -16 -10.5 -27t-26.5 -11t-26.5 11t-10.5 26q0 37 37 37z" />
    <glyph glyph-name="Ntilde" unicode="&#xd1;" horiz-adv-x="783" 
d="M572 33l-376 598q-4 6 -6 6q-3 0 -3 -10l2 -539q1 -39 11.5 -53.5t37.5 -14.5q8 0 31 2q12 1 25 1q21 0 21 -13t-21 -13h-3h-10q-7 1 -12 1q-12 1 -29 3q-31 3 -34 3h-65q-2 0 -34 -3q-7 0 -29 -3q-5 0 -12 -1h-10h-4q-21 0 -21 12q0 14 22 14q13 0 25 -1q23 -2 31 -2
q30 0 41 20q6 13 7 48l2 74v406q-1 48 -5 59q-9 20 -46 20q-15 0 -27 -1q-24 -2 -26 -2h-3q-21 0 -21 12q0 15 21 15q8 0 26 -3q45 -3 53 -3q5 0 13 1h12q21 3 28 3q19 0 31 -21l10 -17l371 -585q3 -7 8 -7q4 0 4 11l-2 529q-1 35 -8 48q-10 20 -41 20q-8 0 -31 -2t-25 -2
q-21 0 -21 14q0 12 21 12h3l23 -1q7 -1 28 -3q30 -3 53 -3h28q24 0 53 3q12 1 29 3l25 1q21 0 21 -12q0 -14 -21 -14q-2 0 -25 2t-31 2q-31 0 -41 -20q-7 -13 -8 -48l-2 -74v-459q0 -36 -8 -45q-5 -5 -16 -5q-17 0 -40 37zM304 793q-26 0 -48 -22l-5 -5q-6 -4 -7 -4
q-6 0 -6 6t14 20q31 30 71 30q27 0 70 -14q52 -17 76 -17q35 0 54 19l9 9q4 4 7 4q6 0 6 -5q0 -7 -14 -20q-39 -37 -80 -37q-23 0 -55 10q-27 10 -51.5 18t-40.5 8z" />
    <glyph glyph-name="Ograve" unicode="&#xd2;" horiz-adv-x="673" 
d="M333 686q130 0 211 -97.5t81 -255.5q0 -157 -78 -254.5t-204 -97.5q-133 0 -213.5 96.5t-80.5 254.5q0 157 79 255.5t205 98.5zM267 849q8 0 23 -11l128 -95q11 -8 11 -15q0 -10 -10 -10q-6 0 -16 7l-131 92q-18 13 -18 20q0 12 13 12zM337 3q116 0 186.5 90.5
t70.5 238.5q0 146 -73.5 238.5t-189.5 92.5q-112 0 -182 -91.5t-70 -236.5q0 -151 70.5 -241.5t187.5 -90.5z" />
    <glyph glyph-name="Oacute" unicode="&#xd3;" horiz-adv-x="673" 
d="M333 686q130 0 211 -97.5t81 -255.5q0 -157 -78 -254.5t-204 -97.5q-133 0 -213.5 96.5t-80.5 254.5q0 157 79 255.5t205 98.5zM424 838q0 -8 -18 -21l-132 -92q-10 -7 -15 -7q-10 0 -10 10q0 8 10 15l129 95q15 11 23 11q13 0 13 -11zM337 3q116 0 186.5 90.5
t70.5 238.5q0 146 -73.5 238.5t-189.5 92.5q-112 0 -182 -91.5t-70 -236.5q0 -151 70.5 -241.5t187.5 -90.5z" />
    <glyph glyph-name="Ocircumflex" unicode="&#xd4;" horiz-adv-x="673" 
d="M333 686q130 0 211 -97.5t81 -255.5q0 -157 -78 -254.5t-204 -97.5q-133 0 -213.5 96.5t-80.5 254.5q0 157 79 255.5t205 98.5zM471 723l-132 78l-137 -76l-9 -4.5t-8 -2.5q-8 0 -8 8q0 9 15 18l140 83q4 2 6 2q4 0 16 -7l130 -79q13 -8 13 -15q0 -10 -10 -10q-8 0 -16 5
zM337 3q116 0 186.5 90.5t70.5 238.5q0 146 -73.5 238.5t-189.5 92.5q-112 0 -182 -91.5t-70 -236.5q0 -151 70.5 -241.5t187.5 -90.5z" />
    <glyph glyph-name="Otilde" unicode="&#xd5;" horiz-adv-x="673" 
d="M333 686q130 0 211 -97.5t81 -255.5q0 -157 -78 -254.5t-204 -97.5q-133 0 -213.5 96.5t-80.5 254.5q0 157 79 255.5t205 98.5zM250 793q-27 0 -49 -22l-5 -5q-4 -4 -7 -4q-6 0 -6 6q0 5 15 20q31 30 70 30q28 0 71 -14q52 -17 75 -17q34 0 54 19l9 9q4 4 8 4q5 0 5 -5
q0 -8 -13 -20q-39 -37 -81 -37q-24 0 -71 17l-4 1q-50 18 -71 18zM337 3q116 0 186.5 90.5t70.5 238.5q0 146 -73.5 238.5t-189.5 92.5q-112 0 -182 -91.5t-70 -236.5q0 -151 70.5 -241.5t187.5 -90.5z" />
    <glyph glyph-name="Odieresis" unicode="&#xd6;" horiz-adv-x="673" 
d="M333 686q130 0 211 -97.5t81 -255.5q0 -157 -78 -254.5t-204 -97.5q-133 0 -213.5 96.5t-80.5 254.5q0 157 79 255.5t205 98.5zM425 825q15 0 26 -11t11 -27q0 -15 -10.5 -26t-26.5 -11t-27 11t-11 27q0 15 11 26t27 11zM248 824q16 0 27 -10.5t11 -25.5q0 -16 -11 -27
t-27 -11q-15 0 -26 11t-11 26q0 16 11 26.5t26 10.5zM337 3q116 0 186.5 90.5t70.5 238.5q0 146 -73.5 238.5t-189.5 92.5q-112 0 -182 -91.5t-70 -236.5q0 -151 70.5 -241.5t187.5 -90.5z" />
    <glyph glyph-name="Oslash" unicode="&#xd8;" horiz-adv-x="673" 
d="M545 707l-45 -80q49 -41 77 -93q48 -91 48 -203q0 -158 -78.5 -254t-206.5 -96q-88 0 -158 45l-46 -91q-10 -19 -21 -19q-14 0 -14 15q0 6 3 11l5 10l50 91q-110 106 -110 288q0 159 78 257t204 98q76 0 147 -43l43 85q9 17 19 17q13 0 13 -15q0 -9 -8 -23zM205 72
l-13 -24q68 -45 145 -45q114 0 185.5 89t71.5 231q0 104 -38 189q-20 45 -69 91l-20 -35q-7 -12 -54 -104q-7 -15 -72 -134q-51 -97 -136 -258zM449 587l17 33q-57 43 -134 43q-111 0 -175 -84q-77 -101 -77 -248q0 -99 39 -187q18 -41 52 -77q6 11 16 27q12 23 61 114
l74 136q34 63 127 243z" />
    <glyph glyph-name="Ugrave" unicode="&#xd9;" horiz-adv-x="746" 
d="M607 506v-298q0 -66 -10.5 -99.5t-40.5 -61.5q-70 -66 -182 -66q-109 0 -179 65q-57 53 -57 166l-2 368q-1 35 -8 48q-10 20 -41 20q-8 0 -31 -2q-11 -1 -25 -1q-21 0 -21 13t21 13h3l22 -2q14 0 41 -3t41 -3h29q13 0 40.5 3t40.5 3l22 2h3q21 0 21 -12q0 -14 -21 -14
q-13 0 -25 1q-24 2 -31 2q-31 0 -41 -19q-8 -13 -8 -49l-2 -142v-209q0 -62 4 -84q8 -41 38 -75q60 -67 164 -67q60 0 112 25q61 28 82 78q13 30 13 100v232q0 35 -1 68l-2 74q0 38 -11 53t-39 15q-7 0 -30 -2q-11 -1 -24 -1q-21 0 -21 13t20 13h4l22 -2q13 0 40 -3t40 -3
h30q12 0 81 6l23 2h3q21 0 21 -12q0 -14 -21 -14q-13 0 -25 1q-25 2 -32 2q-30 0 -41 -20q-6 -13 -7 -48zM297 849q7 0 22 -11l129 -95q10 -7 10 -15q0 -10 -10 -10q-5 0 -15 7l-132 92q-18 13 -18 20q0 12 14 12z" />
    <glyph glyph-name="Uacute" unicode="&#xda;" horiz-adv-x="746" 
d="M607 506v-298q0 -66 -10.5 -99.5t-40.5 -61.5q-70 -66 -182 -66q-109 0 -179 65q-57 53 -57 166l-2 368q-1 35 -8 48q-10 20 -41 20q-8 0 -31 -2q-11 -1 -25 -1q-21 0 -21 13t21 13h3l22 -2q14 0 41 -3t41 -3h29q13 0 40.5 3t40.5 3l22 2h3q21 0 21 -12q0 -14 -21 -14
q-13 0 -25 1q-24 2 -31 2q-31 0 -41 -19q-8 -13 -8 -49l-2 -142v-209q0 -62 4 -84q8 -41 38 -75q60 -67 164 -67q60 0 112 25q61 28 82 78q13 30 13 100v232q0 35 -1 68l-2 74q0 38 -11 53t-39 15q-7 0 -30 -2q-11 -1 -24 -1q-21 0 -21 13t20 13h4l22 -2q13 0 40 -3t40 -3
h30q12 0 81 6l23 2h3q21 0 21 -12q0 -14 -21 -14q-13 0 -25 1q-25 2 -32 2q-30 0 -41 -20q-6 -13 -7 -48zM460 838q0 -8 -18 -21l-132 -92q-10 -7 -15 -7q-10 0 -10 10q0 7 11 15l128 95q15 11 23 11q13 0 13 -11z" />
    <glyph glyph-name="Ucircumflex" unicode="&#xdb;" horiz-adv-x="746" 
d="M607 506v-298q0 -66 -10.5 -99.5t-40.5 -61.5q-70 -66 -182 -66q-109 0 -179 65q-57 53 -57 166l-2 368q-1 35 -8 48q-10 20 -41 20q-8 0 -31 -2q-11 -1 -25 -1q-21 0 -21 13t21 13h3l22 -2q14 0 41 -3t41 -3h29q13 0 40.5 3t40.5 3l22 2h3q21 0 21 -12q0 -14 -21 -14
q-13 0 -25 1q-24 2 -31 2q-31 0 -41 -19q-8 -13 -8 -49l-2 -142v-209q0 -62 4 -84q8 -41 38 -75q60 -67 164 -67q60 0 112 25q61 28 82 78q13 30 13 100v232q0 35 -1 68l-2 74q0 38 -11 53t-39 15q-7 0 -30 -2q-11 -1 -24 -1q-21 0 -21 13t20 13h4l22 -2q13 0 40 -3t40 -3
h30q12 0 81 6l23 2h3q21 0 21 -12q0 -14 -21 -14q-13 0 -25 1q-25 2 -32 2q-30 0 -41 -20q-6 -13 -7 -48zM507 723l-132 78l-137 -76l-9 -4.5t-8 -2.5q-8 0 -8 8q0 9 15 18l140 83q4 2 6 2q4 0 16 -7l130 -79q13 -8 13 -15q0 -10 -10 -10q-8 0 -16 5z" />
    <glyph glyph-name="Udieresis" unicode="&#xdc;" horiz-adv-x="746" 
d="M607 506v-298q0 -66 -10.5 -99.5t-40.5 -61.5q-70 -66 -182 -66q-109 0 -179 65q-57 53 -57 166l-2 368q-1 35 -8 48q-10 20 -41 20q-8 0 -31 -2q-11 -1 -25 -1q-21 0 -21 13t21 13h3l22 -2q14 0 41 -3t41 -3h29q13 0 40.5 3t40.5 3l22 2h3q21 0 21 -12q0 -14 -21 -14
q-13 0 -25 1q-24 2 -31 2q-31 0 -41 -19q-8 -13 -8 -49l-2 -142v-209q0 -62 4 -84q8 -41 38 -75q60 -67 164 -67q60 0 112 25q61 28 82 78q13 30 13 100v232q0 35 -1 68l-2 74q0 38 -11 53t-39 15q-7 0 -30 -2q-11 -1 -24 -1q-21 0 -21 13t20 13h4l22 -2q13 0 40 -3t40 -3
h30q12 0 81 6l23 2h3q21 0 21 -12q0 -14 -21 -14q-13 0 -25 1q-25 2 -32 2q-30 0 -41 -20q-6 -13 -7 -48zM461 825q16 0 26.5 -11t10.5 -27q0 -15 -10.5 -26t-25.5 -11q-16 0 -27 11t-11 27q0 15 11 26t26 11zM285 824q16 0 26.5 -10.5t10.5 -25.5q0 -16 -10.5 -27
t-26.5 -11t-26.5 11t-10.5 26q0 37 37 37z" />
    <glyph glyph-name="germandbls" unicode="&#xdf;" horiz-adv-x="637" 
d="M383 -15q-91 0 -145 71v-17l1 -26q0 -20 -11 -20q-14 0 -14 21l1 3l3 35q2 23 2 86q0 14 -1 30l-2 34q0 17 13 17q12 0 12 -17q0 -8 -3 -35q-2 -18 -2 -30q0 -59 38 -93.5t103 -34.5q83 0 135.5 47.5t52.5 122.5q0 122 -150 151q-52 10 -72 24.5t-20 41.5q0 25 15.5 39.5
t56.5 28.5q55 19 78 43t23 62q0 47 -36 76t-95 29q-66 0 -118 -35.5t-67 -90.5q-14 -51 -14 -129v-381q0 -42 -39 -42q-8 0 -24.5 2t-25.5 2q-11 0 -33.5 -3t-33.5 -3q-18 0 -18 13q0 14 23 14q12 0 36 -3t36 -3q37 0 45 12t8 66l1 343q0 33 -36 33l-28 -2t-27 -2
q-17 0 -17 12q0 13 18 13q8 0 28 -3t35 -3q30 0 36 35q13 82 70 128.5t144 46.5q73 0 116.5 -33.5t43.5 -89.5q0 -92 -124 -130q-49 -15 -49 -43q0 -26 35 -38q1 -1 56 -13q151 -33 151 -164q0 -86 -59.5 -142t-151.5 -56z" />
    <glyph glyph-name="agrave" unicode="&#xe0;" horiz-adv-x="546" 
d="M394 91l-1 8l-4 -7q-13 -22 -37 -46q-62 -61 -154 -61q-72 0 -117 38t-45 99q0 51 32 88t85 48q36 7 85 10q81 5 117 28.5t36 72.5q0 50 -39 80.5t-103 30.5q-67 0 -110.5 -29t-43.5 -73q0 -16 9 -16q2 0 6 4q0 1 2 6q7 17 27 17q30 0 30 -32q0 -17 -13.5 -29.5
t-32.5 -12.5q-23 0 -39.5 17.5t-16.5 41.5q0 54 51.5 90t128.5 36q78 0 123 -37q49 -41 49 -128v-193l2 -56q3 -81 52 -81q54 0 54 74v5l-1 44q-1 29 14 29q13 0 13 -20l-1 -40q-3 -112 -80 -112q-72 0 -77 88zM172 696q8 0 23 -11l128 -96q11 -8 11 -14q0 -10 -10 -10
q-7 0 -16 6l-131 92q-18 13 -18 21q0 12 13 12zM202 5q80 0 135.5 56t55.5 135v97q0 10 -4 10q-1 0 -11 -12q-32 -39 -142 -46q-64 -4 -95.5 -15t-52.5 -37q-24 -29 -24 -72q0 -50 39 -83t99 -33z" />
    <glyph glyph-name="aacute" unicode="&#xe1;" horiz-adv-x="546" 
d="M394 91l-1 8l-4 -7q-13 -22 -37 -46q-62 -61 -154 -61q-72 0 -117 38t-45 99q0 51 32 88t85 48q36 7 85 10q81 5 117 28.5t36 72.5q0 50 -39 80.5t-103 30.5q-67 0 -110.5 -29t-43.5 -73q0 -16 9 -16q2 0 6 4q0 1 2 6q7 17 27 17q30 0 30 -32q0 -17 -13.5 -29.5
t-32.5 -12.5q-23 0 -39.5 17.5t-16.5 41.5q0 54 51.5 90t128.5 36q78 0 123 -37q49 -41 49 -128v-193l2 -56q3 -81 52 -81q54 0 54 74v5l-1 44q-1 29 14 29q13 0 13 -20l-1 -40q-3 -112 -80 -112q-72 0 -77 88zM351 684q0 -8 -19 -21l-131 -92q-9 -6 -15 -6q-10 0 -10 9
q0 8 10 15l129 96q15 11 22 11q14 0 14 -12zM202 5q80 0 135.5 56t55.5 135v97q0 10 -4 10q-1 0 -11 -12q-32 -39 -142 -46q-64 -4 -95.5 -15t-52.5 -37q-24 -29 -24 -72q0 -50 39 -83t99 -33z" />
    <glyph glyph-name="acircumflex" unicode="&#xe2;" horiz-adv-x="546" 
d="M394 91l-1 8l-4 -7q-13 -22 -37 -46q-62 -61 -154 -61q-72 0 -117 38t-45 99q0 51 32 88t85 48q36 7 85 10q81 5 117 28.5t36 72.5q0 50 -39 80.5t-103 30.5q-67 0 -110.5 -29t-43.5 -73q0 -16 9 -16q2 0 6 4q0 1 2 6q7 17 27 17q30 0 30 -32q0 -17 -13.5 -29.5
t-32.5 -12.5q-23 0 -39.5 17.5t-16.5 41.5q0 54 51.5 90t128.5 36q78 0 123 -37q49 -41 49 -128v-193l2 -56q3 -81 52 -81q54 0 54 74v5l-1 44q-1 29 14 29q13 0 13 -20l-1 -40q-3 -112 -80 -112q-72 0 -77 88zM389 586l-132 78l-137 -76q-8 -3 -11 -5t-6 -2q-9 0 -9 9
t16 18l140 82q2 2 6 2t16 -7l130 -79q13 -8 13 -15q0 -10 -10 -10q-8 0 -16 5zM202 5q80 0 135.5 56t55.5 135v97q0 10 -4 10q-1 0 -11 -12q-32 -39 -142 -46q-64 -4 -95.5 -15t-52.5 -37q-24 -29 -24 -72q0 -50 39 -83t99 -33z" />
    <glyph glyph-name="atilde" unicode="&#xe3;" horiz-adv-x="546" 
d="M394 91l-1 8l-4 -7q-13 -22 -37 -46q-62 -61 -154 -61q-72 0 -117 38t-45 99q0 51 32 88t85 48q36 7 85 10q81 5 117 28.5t36 72.5q0 50 -39 80.5t-103 30.5q-67 0 -110.5 -29t-43.5 -73q0 -16 9 -16q2 0 6 4q0 1 2 6q7 17 27 17q30 0 30 -32q0 -17 -13.5 -29.5
t-32.5 -12.5q-23 0 -39.5 17.5t-16.5 41.5q0 54 51.5 90t128.5 36q78 0 123 -37q49 -41 49 -128v-193l2 -56q3 -81 52 -81q54 0 54 74v5l-1 44q-1 29 14 29q13 0 13 -20l-1 -40q-3 -112 -80 -112q-72 0 -77 88zM167 629q-27 0 -48 -21l-5 -5q-3 -4 -7 -4q-6 0 -6 6
q0 5 14 19q32 31 71 31q26 0 71.5 -15.5t74.5 -15.5q34 0 54 19l9 9q4 4 8 4q5 0 5 -5v-1q-1 -5 -13 -19q-18 -15 -34 -24q-22 -12 -47 -12q-27 0 -76 17t-71 17zM202 5q80 0 135.5 56t55.5 135v97q0 10 -4 10q-1 0 -11 -12q-32 -39 -142 -46q-64 -4 -95.5 -15t-52.5 -37
q-24 -29 -24 -72q0 -50 39 -83t99 -33z" />
    <glyph glyph-name="adieresis" unicode="&#xe4;" horiz-adv-x="546" 
d="M394 91l-1 8l-4 -7q-13 -22 -37 -46q-62 -61 -154 -61q-72 0 -117 38t-45 99q0 51 32 88t85 48q36 7 85 10q81 5 117 28.5t36 72.5q0 50 -39 80.5t-103 30.5q-67 0 -110.5 -29t-43.5 -73q0 -16 9 -16q2 0 6 4q0 1 2 6q7 17 27 17q30 0 30 -32q0 -17 -13.5 -29.5
t-32.5 -12.5q-23 0 -39.5 17.5t-16.5 41.5q0 54 51.5 90t128.5 36q78 0 123 -37q49 -41 49 -128v-193l2 -56q3 -81 52 -81q54 0 54 74v5l-1 44q-1 29 14 29q13 0 13 -20l-1 -40q-3 -112 -80 -112q-72 0 -77 88zM338 662q15 0 26 -11t11 -27q0 -15 -10.5 -26t-26.5 -11
t-27 11t-11 27q0 15 11 26t27 11zM161 661q16 0 27 -10.5t11 -25.5q0 -16 -11 -27t-27 -11q-15 0 -26 11t-11 26q0 16 11 26.5t26 10.5zM202 5q80 0 135.5 56t55.5 135v97q0 10 -4 10q-1 0 -11 -12q-32 -39 -142 -46q-64 -4 -95.5 -15t-52.5 -37q-24 -29 -24 -72
q0 -50 39 -83t99 -33z" />
    <glyph glyph-name="aring" unicode="&#xe5;" horiz-adv-x="546" 
d="M394 91l-1 8l-4 -7q-13 -22 -37 -46q-62 -61 -154 -61q-72 0 -117 38t-45 99q0 51 32 88t85 48q36 7 85 10q81 5 117 28.5t36 72.5q0 50 -39 80.5t-103 30.5q-67 0 -110.5 -29t-43.5 -73q0 -16 9 -16q2 0 6 4q0 1 2 6q7 17 27 17q30 0 30 -32q0 -17 -13.5 -29.5
t-32.5 -12.5q-23 0 -39.5 17.5t-16.5 41.5q0 54 51.5 90t128.5 36q78 0 123 -37q49 -41 49 -128v-193l2 -56q3 -81 52 -81q54 0 54 74v5l-1 44q-1 29 14 29q13 0 13 -20l-1 -40q-3 -112 -80 -112q-72 0 -77 88zM247 727q34 0 57.5 -23t23.5 -57t-23.5 -58t-57.5 -24t-58 24
t-24 57q0 34 24 57.5t58 23.5zM202 5q80 0 135.5 56t55.5 135v97q0 10 -4 10q-1 0 -11 -12q-32 -39 -142 -46q-64 -4 -95.5 -15t-52.5 -37q-24 -29 -24 -72q0 -50 39 -83t99 -33zM247 590q23 0 39 16.5t16 39.5q0 24 -16 40.5t-39 16.5t-39.5 -16.5t-16.5 -39.5t16.5 -40
t39.5 -17z" />
    <glyph glyph-name="ae" unicode="&#xe6;" horiz-adv-x="892" 
d="M625 -15q-151 0 -208 149q-16 -64 -54 -98q-56 -51 -145 -51q-87 0 -134.5 38t-47.5 107q0 71 53 110t151 39h140q17 0 20.5 6.5t3.5 35.5q0 159 -155 159q-62 0 -107 -28.5t-45 -67.5q0 -18 8 -18q6 0 11 10q8 16 26 16q32 0 32 -32q0 -17 -13.5 -29t-32.5 -12
q-24 0 -41.5 17.5t-17.5 42.5q0 51 52 86t128 35q81 0 126.5 -36.5t48.5 -104.5q28 59 61 89q58 52 146 52q93 0 153.5 -61t60.5 -154q0 -23 -12 -27q-8 -3 -27 -3h-354q-16 0 -19.5 -4.5t-3.5 -23.5q0 -98 55 -160t142 -62q71 0 122.5 41t61.5 106q3 21 16 21q12 0 12 -16
q0 -38 -35 -86q-63 -86 -178 -86zM432 292q0 -13 22 -13h348q10 0 13 3.5t3 11.5q0 26 -12 61q-43 125 -173 125q-124 0 -174 -100q-27 -54 -27 -86v-2zM403 232q0 16 -3.5 19.5t-19.5 3.5h-134q-182 0 -182 -127q0 -57 41.5 -90t113.5 -33q184 0 184 227z" />
    <glyph glyph-name="ccedilla" unicode="&#xe7;" horiz-adv-x="510" 
d="M274 -15h-5q-3 1 -6 1l-20 -46q28 6 47 6q37 0 60 -18t23 -46q0 -31 -29 -51t-73 -20q-58 0 -90 30q-10 9 -10 18q0 10 14 10q8 0 14 -6l6 -8q18 -24 66 -24q32 0 52.5 15t20.5 37q0 42 -65 42q-20 0 -42 -10q-11 -5 -17 -5q-4 0 -8.5 3.5t-4.5 7.5q0 3 6 16l24 51
q-91 13 -144.5 80t-53.5 169q0 117 66 190t172 73q78 0 131 -42.5t53 -104.5q0 -32 -17.5 -53t-43.5 -21q-39 0 -39 36q0 30 30 30q13 0 17 -5l6 -7q5 -3 8 -3q14 0 14 28q0 51 -45.5 86.5t-110.5 35.5q-97 0 -155 -66t-58 -177q0 -107 55.5 -169.5t150.5 -62.5q90 0 136 58
q32 41 34 80q1 25 14 25q14 0 14 -19q0 -60 -52 -112t-145 -52z" />
    <glyph glyph-name="egrave" unicode="&#xe8;" horiz-adv-x="528" 
d="M481 281q0 -21 -9.5 -25t-29.5 -4h-354q-14 0 -17.5 -4t-3.5 -20q0 -100 54.5 -161.5t142.5 -61.5q95 0 149 67q21 26 30 57q0 3 5 25q4 17 15 17q12 0 12 -14q0 -17 -11 -45q-24 -60 -76.5 -93.5t-122.5 -33.5q-102 0 -164 69t-62 182q0 117 64.5 190.5t166.5 73.5
q89 0 150 -63.5t61 -155.5zM190 696q7 0 22 -11l129 -96q10 -7 10 -14q0 -10 -10 -10q-6 0 -15 6l-132 92q-18 13 -18 21q0 12 14 12zM71 290q0 -15 22 -15h344q17 0 17 16q0 64 -44 122q-51 67 -142 67q-69 0 -118.5 -38.5t-70.5 -108.5q-8 -26 -8 -43z" />
    <glyph glyph-name="eacute" unicode="&#xe9;" horiz-adv-x="528" 
d="M481 281q0 -21 -9.5 -25t-29.5 -4h-354q-14 0 -17.5 -4t-3.5 -20q0 -100 54.5 -161.5t142.5 -61.5q95 0 149 67q21 26 30 57q0 3 5 25q4 17 15 17q12 0 12 -14q0 -17 -11 -45q-24 -60 -76.5 -93.5t-122.5 -33.5q-102 0 -164 69t-62 182q0 117 64.5 190.5t166.5 73.5
q89 0 150 -63.5t61 -155.5zM352 684q0 -8 -19 -21l-131 -92q-9 -6 -15 -6q-10 0 -10 9q0 8 10 15l129 96q15 11 22 11q14 0 14 -12zM71 290q0 -15 22 -15h344q17 0 17 16q0 64 -44 122q-51 67 -142 67q-69 0 -118.5 -38.5t-70.5 -108.5q-8 -26 -8 -43z" />
    <glyph glyph-name="ecircumflex" unicode="&#xea;" horiz-adv-x="528" 
d="M481 281q0 -21 -9.5 -25t-29.5 -4h-354q-14 0 -17.5 -4t-3.5 -20q0 -100 54.5 -161.5t142.5 -61.5q95 0 149 67q21 26 30 57q0 3 5 25q4 17 15 17q12 0 12 -14q0 -17 -11 -45q-24 -60 -76.5 -93.5t-122.5 -33.5q-102 0 -164 69t-62 182q0 117 64.5 190.5t166.5 73.5
q89 0 150 -63.5t61 -155.5zM402 586l-133 78l-137 -76q-18 -7 -16 -7q-9 0 -9 9t16 18l139 82q2 2 6 2t16 -7l130 -79q13 -8 13 -15q0 -10 -10 -10q-6 0 -15 5zM71 290q0 -15 22 -15h344q17 0 17 16q0 64 -44 122q-51 67 -142 67q-69 0 -118.5 -38.5t-70.5 -108.5
q-8 -26 -8 -43z" />
    <glyph glyph-name="edieresis" unicode="&#xeb;" horiz-adv-x="528" 
d="M481 281q0 -21 -9.5 -25t-29.5 -4h-354q-14 0 -17.5 -4t-3.5 -20q0 -100 54.5 -161.5t142.5 -61.5q95 0 149 67q21 26 30 57q0 3 5 25q4 17 15 17q12 0 12 -14q0 -17 -11 -45q-24 -60 -76.5 -93.5t-122.5 -33.5q-102 0 -164 69t-62 182q0 117 64.5 190.5t166.5 73.5
q89 0 150 -63.5t61 -155.5zM355 662q16 0 26.5 -11t10.5 -27q0 -15 -10.5 -26t-25.5 -11q-16 0 -27 11t-11 27q0 15 10.5 26t26.5 11zM179 661q16 0 26.5 -10.5t10.5 -25.5q0 -16 -10.5 -27t-26.5 -11t-26.5 11t-10.5 26q0 37 37 37zM71 290q0 -15 22 -15h344q17 0 17 16
q0 64 -44 122q-51 67 -142 67q-69 0 -118.5 -38.5t-70.5 -108.5q-8 -26 -8 -43z" />
    <glyph glyph-name="igrave" unicode="&#xec;" horiz-adv-x="309" 
d="M179 183q0 -117 8 -141t46 -24q7 0 21 1t21 1h5q22 0 22 -12q0 -13 -18 -13q-5 0 -4 0l-35 3l-41 3l-29 1h-19l-28 -1l-42 -3l-35 -3h-3q-19 0 -19 12q0 13 22 13h5q7 0 21.5 -1t21.5 -1q38 0 46 24t8 141v157q0 73 0 63q-2 52 -15 60q-8 5 -26 5q-6 0 -33 -2l-27 -2h-3
q-20 0 -20 13t17 13h3l30 -3h48q6 0 18 1.5t18 1.5q16 0 16 -23v-284zM52 696q7 0 22 -11l129 -96q10 -7 10 -14q0 -10 -10 -10q-6 0 -15 6l-132 92q-18 13 -18 21q0 12 14 12z" />
    <glyph glyph-name="iacute" unicode="&#xed;" horiz-adv-x="309" 
d="M179 183q0 -117 8 -141t46 -24q7 0 21 1t21 1h5q22 0 22 -12q0 -13 -18 -13q-5 0 -4 0l-35 3l-41 3l-29 1h-19l-28 -1l-42 -3l-35 -3h-3q-19 0 -19 12q0 13 22 13h5q7 0 21.5 -1t21.5 -1q38 0 46 24t8 141v157q0 73 0 63q-2 52 -15 60q-8 5 -26 5q-6 0 -33 -2l-27 -2h-3
q-20 0 -20 13t17 13h3l30 -3h48q6 0 18 1.5t18 1.5q16 0 16 -23v-284zM219 684q0 -8 -18 -21l-132 -92q-9 -6 -15 -6q-10 0 -10 9q0 8 10 15l129 96q15 11 23 11q13 0 13 -12z" />
    <glyph glyph-name="icircumflex" unicode="&#xee;" horiz-adv-x="309" 
d="M179 183q0 -117 8 -141t46 -24q7 0 21 1t21 1h5q22 0 22 -12q0 -13 -18 -13q-5 0 -4 0l-35 3l-41 3l-29 1h-19l-28 -1l-42 -3l-35 -3h-3q-19 0 -19 12q0 13 22 13h5q7 0 21.5 -1t21.5 -1q38 0 46 24t8 141v157q0 73 0 63q-2 52 -15 60q-8 5 -26 5q-6 0 -33 -2l-27 -2h-3
q-20 0 -20 13t17 13h3l30 -3h48q6 0 18 1.5t18 1.5q16 0 16 -23v-284zM263 586l-112 78l-117 -76q-6 -3 -9 -5t-5 -2q-7 0 -7 9t13 18l119 82q2 2 5 2q5 0 13 -7l111 -79q11 -8 11 -15q0 -10 -8 -10q-4 0 -14 5z" />
    <glyph glyph-name="idieresis" unicode="&#xef;" horiz-adv-x="309" 
d="M179 183q0 -117 8 -141t46 -24q7 0 21 1t21 1h5q22 0 22 -12q0 -13 -18 -13q-5 0 -4 0l-35 3l-41 3l-29 1h-19l-28 -1l-42 -3l-35 -3h-3q-19 0 -19 12q0 13 22 13h5q7 0 21.5 -1t21.5 -1q38 0 46 24t8 141v157q0 73 0 63q-2 52 -15 60q-8 5 -26 5q-6 0 -33 -2l-27 -2h-3
q-20 0 -20 13t17 13h3l30 -3h48q6 0 18 1.5t18 1.5q16 0 16 -23v-284zM207 662q16 0 26.5 -11t10.5 -27q0 -15 -10.5 -26t-25.5 -11q-16 0 -27 11t-11 27q0 15 10.5 26t26.5 11zM71 661q16 0 26.5 -10.5t10.5 -25.5q0 -16 -10.5 -27t-26.5 -11t-26.5 11t-10.5 26q0 37 37 37
z" />
    <glyph glyph-name="ntilde" unicode="&#xf1;" horiz-adv-x="674" 
d="M179 449v-54q35 63 89 86q46 19 95 19q72 0 118 -31.5t58 -88.5q8 -39 8 -123v-74q0 -117 8 -141t46 -24q7 0 21.5 1t21.5 1h5q22 0 22 -12q0 -13 -19 -13h-3l-35 3l-42 3l-28 1h-19l-29 -1l-41 -3l-35 -3h-4q-18 0 -18 12q0 13 22 13h4q7 0 21.5 -1t21.5 -1
q39 0 46.5 23.5t7.5 141.5v75q0 127 -28 166q-40 56 -134 56q-115 0 -161 -91q-19 -37 -19 -119v-87q0 -117 8 -141t46 -24q7 0 21 1t21 1h5q22 0 22 -12q0 -13 -18 -13q-5 0 -4 0l-35 3l-41 3l-30 1h-18l-28 -1l-42 -3l-35 -3h-3q-19 0 -19 12q0 13 22 13h5q7 0 21 -1
t21 -1q39 0 47 24t8 141v157q0 72 0 63q-2 52 -15 60q-8 5 -26 5q-6 0 -33 -2l-30 -2q-20 0 -20 13t18 13q7 0 31 -2q12 -1 23 -1h19q6 0 19 1.5t19 1.5q14 0 17.5 -7t3.5 -34zM256 629q-27 0 -48 -21l-5 -5q-4 -4 -7 -4q-6 0 -6 6q0 5 14 19q32 31 71 31q26 0 71.5 -15.5
t74.5 -15.5q35 0 54 19l9 9q4 4 8 4q5 0 5 -5v-1q-4 -19 -47 -43q-22 -12 -47 -12q-27 0 -76 17t-71 17z" />
    <glyph glyph-name="ograve" unicode="&#xf2;" horiz-adv-x="546" 
d="M271 500q105 0 170.5 -72t65.5 -188q0 -113 -65.5 -184t-170.5 -71q-102 0 -167 74t-65 190q0 111 65 181t167 70zM199 696q7 0 22 -11l129 -96q10 -7 10 -14q0 -10 -10 -10q-6 0 -15 6l-132 92q-18 13 -18 21q0 12 14 12zM271 5q92 0 150 64.5t58 167.5
q0 108 -57.5 175.5t-149.5 67.5t-148.5 -64.5t-56.5 -168.5q0 -109 56 -175.5t148 -66.5z" />
    <glyph glyph-name="oacute" unicode="&#xf3;" horiz-adv-x="546" 
d="M271 500q105 0 170.5 -72t65.5 -188q0 -113 -65.5 -184t-170.5 -71q-102 0 -167 74t-65 190q0 111 65 181t167 70zM351 684q0 -8 -19 -21l-131 -92q-9 -6 -15 -6q-10 0 -10 9q0 8 10 15l129 96q15 11 22 11q14 0 14 -12zM271 5q92 0 150 64.5t58 167.5q0 108 -57.5 175.5
t-149.5 67.5t-148.5 -64.5t-56.5 -168.5q0 -109 56 -175.5t148 -66.5z" />
    <glyph glyph-name="ocircumflex" unicode="&#xf4;" horiz-adv-x="546" 
d="M271 500q105 0 170.5 -72t65.5 -188q0 -113 -65.5 -184t-170.5 -71q-102 0 -167 74t-65 190q0 111 65 181t167 70zM408 586l-133 78l-137 -76q-18 -7 -16 -7q-9 0 -9 9t16 18l139 82q2 2 6 2t16 -7l130 -79q13 -8 13 -15q0 -10 -10 -10q-6 0 -15 5zM271 5q92 0 150 64.5
t58 167.5q0 108 -57.5 175.5t-149.5 67.5t-148.5 -64.5t-56.5 -168.5q0 -109 56 -175.5t148 -66.5z" />
    <glyph glyph-name="otilde" unicode="&#xf5;" horiz-adv-x="546" 
d="M271 500q105 0 170.5 -72t65.5 -188q0 -113 -65.5 -184t-170.5 -71q-102 0 -167 74t-65 190q0 111 65 181t167 70zM186 629q-28 0 -48 -21l-6 -5q-3 -4 -7 -4q-6 0 -6 6q0 4 15 19q31 31 70 31q27 0 72.5 -15.5t73.5 -15.5q34 0 54 19l9 9q4 4 8 4q5 0 5 -5v-1
q0 -6 -13 -19q-22 -19 -38 -26q-18 -10 -43 -10q-26 0 -75 17t-71 17zM271 5q92 0 150 64.5t58 167.5q0 108 -57.5 175.5t-149.5 67.5t-148.5 -64.5t-56.5 -168.5q0 -109 56 -175.5t148 -66.5z" />
    <glyph glyph-name="odieresis" unicode="&#xf6;" horiz-adv-x="546" 
d="M271 500q105 0 170.5 -72t65.5 -188q0 -113 -65.5 -184t-170.5 -71q-102 0 -167 74t-65 190q0 111 65 181t167 70zM361 662q16 0 26.5 -11t10.5 -27q0 -15 -10.5 -26t-25.5 -11q-16 0 -27.5 11t-11.5 27q0 15 11 26t27 11zM185 661q16 0 26.5 -10.5t10.5 -25.5
q0 -16 -10.5 -27t-26.5 -11t-27 11t-11 26q0 16 11 26.5t27 10.5zM271 5q92 0 150 64.5t58 167.5q0 108 -57.5 175.5t-149.5 67.5t-148.5 -64.5t-56.5 -168.5q0 -109 56 -175.5t148 -66.5z" />
    <glyph glyph-name="divide" unicode="&#xf7;" horiz-adv-x="500" 
d="M221 519q0 29 29 29q28 0 28 -29q0 -28 -28 -28q-29 0 -29 28zM221 135q0 29 29 29q28 0 28 -29q0 -28 -28 -28q-29 0 -29 28zM33 315v24h434v-24h-434z" />
    <glyph glyph-name="oslash" unicode="&#xf8;" horiz-adv-x="546" 
d="M438 534l-41 -68q44 -32 68 -70q42 -68 42 -154q0 -115 -65.5 -186t-171.5 -71q-54 0 -113 29l-31 -63q-11 -23 -23 -23q-14 0 -14 13q0 9 6 20l39 69q-95 83 -95 215q0 115 64 185t168 70q46 0 104 -21l38 73q8 15 18 15q14 0 14 -14q0 -7 -7 -19zM182 62l-14 -29
q51 -28 101 -28q95 0 152.5 64.5t57.5 170.5q0 77 -34 140q-18 34 -58 65l-17 -31zM353 437l11 22q-46 21 -89 21q-94 0 -151 -63.5t-57 -167.5q0 -67 25 -125q16 -38 52 -74l15 25l45 84l52 94z" />
    <glyph glyph-name="ugrave" unicode="&#xf9;" horiz-adv-x="637" 
d="M481 52v38q-18 -35 -41 -56q-54 -49 -136 -49q-98 0 -144 55q-25 30 -33 73q-4 25 -4 82v146q0 90 -6 109t-35 19q-14 0 -32 -2q-26 -3 -29 -3q-19 0 -19 14q0 12 15 12h3l28 -3h58l10 1l16 2q18 0 18 -37v-6q-1 -8 -1 -23v-232q0 -53 5 -77q7 -40 33 -67q41 -43 118 -43
q102 0 145 71q31 51 31 152v113q0 101 -7.5 114.5t-32.5 13.5q-15 0 -33 -2l-29 -3q-19 0 -19 13t16 13h3l27 -3h50q15 0 21 1.5t13 1.5q19 0 19 -40q0 -14 -1 -20v-30q-1 -28 -1 -53v-202q0 -101 7 -114.5t33 -13.5q3 0 32 3q20 2 31 2q19 0 19 -13t-18 -13h-2l-29 2l-23 1
h-12q-3 0 -10 -1h-12q-7 -1 -17 -1q-15 0 -20 8.5t-5 33.5v13zM214 696q8 0 23 -11l128 -96q11 -8 11 -14q0 -10 -10 -10q-7 0 -16 6l-131 92q-18 13 -18 21q0 12 13 12z" />
    <glyph glyph-name="uacute" unicode="&#xfa;" horiz-adv-x="637" 
d="M481 52v38q-18 -35 -41 -56q-54 -49 -136 -49q-98 0 -144 55q-25 30 -33 73q-4 25 -4 82v146q0 90 -6 109t-35 19q-14 0 -32 -2q-26 -3 -29 -3q-19 0 -19 14q0 12 15 12h3l28 -3h58l10 1l16 2q18 0 18 -37v-6q-1 -8 -1 -23v-232q0 -53 5 -77q7 -40 33 -67q41 -43 118 -43
q102 0 145 71q31 51 31 152v113q0 101 -7.5 114.5t-32.5 13.5q-15 0 -33 -2l-29 -3q-19 0 -19 13t16 13h3l27 -3h50q15 0 21 1.5t13 1.5q19 0 19 -40q0 -14 -1 -20v-30q-1 -28 -1 -53v-202q0 -101 7 -114.5t33 -13.5q3 0 32 3q20 2 31 2q19 0 19 -13t-18 -13h-2l-29 2l-23 1
h-12q-3 0 -10 -1h-12q-7 -1 -17 -1q-15 0 -20 8.5t-5 33.5v13zM399 684q0 -8 -18 -21l-131 -92q-9 -6 -15 -6q-10 0 -10 9q0 8 10 15l129 96q15 11 22 11q13 0 13 -12z" />
    <glyph glyph-name="ucircumflex" unicode="&#xfb;" horiz-adv-x="637" 
d="M481 52v38q-18 -35 -41 -56q-54 -49 -136 -49q-98 0 -144 55q-25 30 -33 73q-4 25 -4 82v146q0 90 -6 109t-35 19q-14 0 -32 -2q-26 -3 -29 -3q-19 0 -19 14q0 12 15 12h3l28 -3h58l10 1l16 2q18 0 18 -37v-6q-1 -8 -1 -23v-232q0 -53 5 -77q7 -40 33 -67q41 -43 118 -43
q102 0 145 71q31 51 31 152v113q0 101 -7.5 114.5t-32.5 13.5q-15 0 -33 -2l-29 -3q-19 0 -19 13t16 13h3l27 -3h50q15 0 21 1.5t13 1.5q19 0 19 -40q0 -14 -1 -20v-30q-1 -28 -1 -53v-202q0 -101 7 -114.5t33 -13.5q3 0 32 3q20 2 31 2q19 0 19 -13t-18 -13h-2l-29 2l-23 1
h-12q-3 0 -10 -1h-12q-7 -1 -17 -1q-15 0 -20 8.5t-5 33.5v13zM436 586l-132 78l-137 -76q-18 -7 -17 -7q-8 0 -8 9q0 7 15 18l140 82q2 2 6 2t16 -7l130 -79q13 -8 13 -15q0 -10 -10 -10q-3 0 -16 5z" />
    <glyph glyph-name="udieresis" unicode="&#xfc;" horiz-adv-x="637" 
d="M481 52v38q-18 -35 -41 -56q-54 -49 -136 -49q-98 0 -144 55q-25 30 -33 73q-4 25 -4 82v146q0 90 -6 109t-35 19q-14 0 -32 -2q-26 -3 -29 -3q-19 0 -19 14q0 12 15 12h3l28 -3h58l10 1l16 2q18 0 18 -37v-6q-1 -8 -1 -23v-232q0 -53 5 -77q7 -40 33 -67q41 -43 118 -43
q102 0 145 71q31 51 31 152v113q0 101 -7.5 114.5t-32.5 13.5q-15 0 -33 -2l-29 -3q-19 0 -19 13t16 13h3l27 -3h50q15 0 21 1.5t13 1.5q19 0 19 -40q0 -14 -1 -20v-30q-1 -28 -1 -53v-202q0 -101 7 -114.5t33 -13.5q3 0 32 3q20 2 31 2q19 0 19 -13t-18 -13h-2l-29 2l-23 1
h-12q-3 0 -10 -1h-12q-7 -1 -17 -1q-15 0 -20 8.5t-5 33.5v13zM380 662q16 0 26.5 -11t10.5 -27q0 -15 -10.5 -26t-25.5 -11q-16 0 -27.5 11t-11.5 27q0 15 11 26t27 11zM204 661q15 0 26 -10.5t11 -25.5q0 -16 -11 -27t-26 -11q-16 0 -27 11t-11 26q0 16 11 26.5t27 10.5z
" />
    <glyph glyph-name="ydieresis" unicode="&#xff;" horiz-adv-x="564" 
d="M373 662q16 0 27 -11t11 -27q0 -15 -11 -26t-26 -11q-16 0 -27 11t-11 27q0 15 11 26t26 11zM197 661q16 0 27 -10.5t11 -25.5q0 -16 -11 -27t-27 -11q-15 0 -26 11t-11 26q0 37 37 37zM480 429l-19 -44l-168 -404q-27 -64 -64 -112q-49 -62 -132 -62q-54 0 -90 28.5
t-36 71.5q0 21 14.5 37t33.5 16q14 0 24.5 -10t10.5 -24q0 -31 -33 -31q-6 0 -12 3q-2 0 -4 1q-6 0 -6 -10q0 -23 30.5 -42.5t67.5 -19.5q94 0 147 104q17 33 17 48q0 9 -7 27l-154 389q-16 41 -22 49q-15 21 -44 21q-7 0 -11 -1h-10q-20 0 -20 12q0 14 20 14q-3 0 27 -2
q18 -3 65 -3q23 0 65 3q28 2 40 2q25 0 25 -14q0 -12 -22 -12h-3l-27 2q-14 1 -27 1q-40 0 -40 -19q0 -7 4 -19l10 -31l142 -364q5 -13 8 -13t8 13l161 395q4 11 4 15q0 22 -41 22q-10 0 -29 -1.5t-28 -1.5q-20 0 -20 13q0 14 19 14q-1 0 29 -2q5 -2 31 -3l38 -2q45 0 75 5
q26 2 28 2q18 0 18 -12q0 -14 -24 -14h-15q-4 1 -12 1q-18 0 -25.5 -7.5t-16.5 -28.5z" />
    <glyph glyph-name="dotlessi" unicode="&#x131;" horiz-adv-x="309" 
d="M179 183q0 -117 8 -141t46 -24q7 0 21 1t21 1h5q22 0 22 -12q0 -13 -18 -13q-5 0 -4 0l-35 3l-41 3l-29 1h-19l-28 -1l-42 -3l-35 -3h-3q-19 0 -19 12q0 13 22 13h5q7 0 21.5 -1t21.5 -1q38 0 46 24t8 141v157q0 73 0 63q-2 52 -15 60q-8 5 -26 5q-6 0 -33 -2l-27 -2h-3
q-20 0 -20 13t17 13h3l30 -3h48q6 0 18 1.5t18 1.5q16 0 16 -23v-284z" />
    <glyph glyph-name="OE" unicode="&#x152;" horiz-adv-x="1110" 
d="M591 38q4 35 5 152q-21 -63 -50 -102q-80 -107 -215 -107q-126 0 -204.5 95.5t-78.5 249.5q0 158 81.5 259t209.5 101q118 0 196 -93q37 -44 63 -119v44q0 8 -3 71q-1 8 -4 39v9q0 30 48 30h11q48 -2 52 -2h177q18 0 54 2.5t54 2.5q31 0 35 -13q1 -5 1 -16v-6
q-3 -55 -3 -80q0 -58 4 -120q1 -1 1 -4q0 -30 -16 -30q-15 0 -15 31q0 4 1 7q0 -11 2 52l2 63v12q0 56 -14.5 67.5t-83.5 11.5h-216q-42 0 -51.5 -14t-9.5 -75v-156q0 -31 7 -37.5t39 -6.5h113q66 0 66 54q0 10 -1 30.5t-1 30.5l-1 2q0 32 14 32t14 -27v-4l-5 -57
q-3 -34 -3 -74q0 -31 3 -70l6 -83q0 -31 -15 -31t-15 30q0 10 3 47q1 12 1 33q0 38 -14.5 52.5t-51.5 14.5h-117q-31 0 -38 -8q-4 -4 -4 -16v-245q0 -30 5.5 -37t28.5 -8l37 -1h188q90 0 110 16t20 87q0 1 -2 45.5t-2 43.5q0 30 15 30q13 0 13 -26v-5q0 -12 -2 -42
q-3 -47 -3 -59v-38q1 -10 1 -27q0 -28 -12 -38.5t-43 -10.5h-8l-28 1l-41 3h-230q-8 0 -25 -1.5t-25 -1.5q-30 0 -30 28v12zM334 3q116 0 186.5 91.5t70.5 242.5q0 135 -67 230.5t-185 95.5q-122 0 -191 -100t-69 -237q0 -145 70 -234t185 -89z" />
    <glyph glyph-name="oe" unicode="&#x153;" horiz-adv-x="965" 
d="M529 65q-23 32 -40 87q-20 -51 -38 -77q-64 -90 -179 -90q-104 0 -168.5 71t-64.5 185t65 186.5t168 72.5q100 0 163 -66q33 -34 56 -102q20 62 48 95q63 73 170 73q89 0 149.5 -60.5t60.5 -149.5q0 -28 -11 -33q-6 -3 -17 -3h-367q-22 0 -22 -18q0 -105 54 -168t145 -63
q72 0 123 41.5t60 106.5q3 21 15 21q13 0 13 -16q0 -40 -35 -89q-59 -84 -175 -84q-115 0 -173 80zM506 292q0 -15 22 -15l348 1q10 1 12 3t2 12q0 80 -52.5 133.5t-130.5 53.5q-81 0 -141 -56.5t-60 -131.5zM272 5q92 0 149 67.5t57 176.5q0 104 -56.5 167.5t-147.5 63.5
q-94 0 -150.5 -66.5t-56.5 -176.5q0 -104 56.5 -168t148.5 -64z" />
    <glyph glyph-name="Ydieresis" unicode="&#x178;" 
d="M325 261v-100l2 -74q1 -35 8 -48q10 -20 41 -20q16 0 31 2q8 1 24 1q22 0 22 -13t-21 -13h-4l-22 2q-8 0 -28 2q-24 2 -35.5 3t-17.5 1h-34q-7 0 -16.5 -0.5t-31 -3t-33.5 -2.5l-22 -2h-4q-21 0 -21 12q0 14 22 14q14 0 25 -1.5t30 -1.5q30 0 41.5 14.5t12.5 53.5l2 74
l1 103q0 13 -6 23l-195 316q-15 24 -21 30q-13 13 -32 13q-8 0 -23.5 -1t-23.5 -1q-25 0 -25 13t25 13q7 0 32 -3q33 -4 70 -4q36 0 82 5q28 3 33 3q20 0 20 -13q0 -14 -22 -14q-6 0 -40 2l-37 2q-23 0 -23 -13q0 -2 4 -10l7 -11l175 -289q8 -14 16 -14q7 0 16 14l162 262
q22 36 22 44q0 12 -20 13l-15 1h-12q-12 -1 -21 -1.5t-26 -0.5q-32 0 -32 13t22 13q6 0 40 -4t77 -4q6 0 44 2q8 0 28 2.5t30 2.5q19 0 19 -13t-25 -13q-2 0 -8 1h-8l-22 2q-16 0 -24 -7t-27 -36l-201 -318q-7 -11 -7 -23zM397 825q16 0 27 -11t11 -27q0 -15 -11 -26
t-26 -11q-16 0 -27 11t-11 27q0 15 11 26t26 11zM221 824q16 0 27 -10.5t11 -25.5q0 -16 -11 -27t-27 -11q-15 0 -26 11t-11 26q0 37 37 37z" />
    <glyph glyph-name="florin" unicode="&#x192;" 
d="M470 421h-116l-74 -410q-22 -121 -74 -173t-121 -52q-49 0 -84 21.5t-35 52.5q0 32 32 32q30 0 30 -28q0 -5 -4 -17q-4 -8 -4 -11q0 -29 64 -29q132 0 171 222l69 392h-69q-26 0 -26 12t24 12h75l18 100q11 62 31 94q32 51 106 51q56 0 96 -25.5t40 -61.5q0 -38 -31 -38
q-29 0 -29 29q0 11 13 23q6 8 6 10q0 15 -33 30q-26 12 -59 12q-49 0 -73.5 -27t-35.5 -93l-18 -104h115q19 0 23.5 -2.5t4.5 -7.5q0 -14 -32 -14z" />
    <glyph glyph-name="circumflex" unicode="&#x2c6;" horiz-adv-x="491" 
d="M380 586l-132 78l-137 -76q-8 -3 -11 -5t-6 -2q-8 0 -8 9t15 18l140 82q2 2 6 2t16 -7l130 -79q13 -8 13 -15q0 -10 -10 -10q-3 0 -16 5z" />
    <glyph glyph-name="caron" unicode="&#x2c7;" horiz-adv-x="491" 
d="M111 685l137 -76l132 78q8 5 16 5q10 0 10 -10q0 -7 -13 -15l-130 -79q-12 -7 -16 -7q-2 0 -6 2l-8 5l-132 77q-15 9 -15 18q0 8 8 8q6 0 17 -6z" />
    <glyph glyph-name="breve" unicode="&#x2d8;" horiz-adv-x="491" 
d="M246 579q-98 0 -145 71q-15 23 -15 32q0 7 6 7q5 0 18 -19q41 -60 136 -60q94 0 135 60q13 19 19 19q5 0 5 -7q0 -12 -14 -32q-49 -71 -145 -71z" />
    <glyph glyph-name="dotaccent" unicode="&#x2d9;" horiz-adv-x="491" 
d="M246 665q16 0 27 -10.5t11 -26.5t-11 -27.5t-27 -11.5t-27.5 11.5t-11.5 26.5q0 16 11.5 27t27.5 11z" />
    <glyph glyph-name="ring" unicode="&#x2da;" horiz-adv-x="492" 
d="M233 727q34 0 57.5 -23t23.5 -57t-23.5 -58t-57.5 -24t-58 24t-24 57q0 34 24 57.5t58 23.5zM233 590q23 0 39 16.5t16 39.5q0 24 -16 40.5t-39 16.5t-39.5 -16.5t-16.5 -39.5t16.5 -40t39.5 -17z" />
    <glyph glyph-name="ogonek" unicode="&#x2db;" horiz-adv-x="492" 
d="M217 -110q0 60 81 110h34q-87 -53 -87 -109q0 -28 22 -46t55 -18q26 0 57 16q13 7 18 7q12 0 12 -11q0 -10 -18 -18q-31 -14 -68 -14q-47 0 -76.5 23t-29.5 60z" />
    <glyph glyph-name="tilde" unicode="&#x2dc;" horiz-adv-x="492" 
d="M159 629q-28 0 -49 -21l-5 -5q-3 -4 -7 -4q-6 0 -6 6q0 4 15 19q32 31 70 31q26 0 71.5 -15.5t74.5 -15.5q34 0 54 19l9 9q4 4 8 4q5 0 5 -5v-1q-1 -7 -13 -19q-43 -36 -81 -36q-26 0 -75 17t-71 17z" />
    <glyph glyph-name="hungarumlaut" unicode="&#x2dd;" horiz-adv-x="491" 
d="M292 719q0 -4 -11 -20l-87 -123q-8 -12 -14 -12q-9 0 -9 10q0 7 5 12l83 127q12 18 21 18q12 0 12 -12zM392 719q0 -4 -11 -20l-87 -123q-7 -12 -14 -12q-9 0 -9 10q0 7 5 12l83 127q12 18 21 18q12 0 12 -12z" />
    <glyph glyph-name="gravecmb" unicode="&#x300;" horiz-adv-x="0" 
d="M-344 696q7 0 22 -11l129 -96q10 -7 10 -14q0 -10 -10 -10q-6 0 -15 6l-132 92q-18 13 -18 21q0 12 14 12z" />
    <glyph glyph-name="acutecmb" unicode="&#x301;" horiz-adv-x="0" 
d="M-184 684q0 -8 -18 -21l-131 -92q-9 -6 -15 -6q-10 0 -10 9q0 8 10 15l129 96q15 11 22 11q13 0 13 -12z" />
    <glyph glyph-name="circumflexcmb" unicode="&#x302;" horiz-adv-x="0" 
d="M-137 586l-132 78l-137 -76q-8 -3 -11 -5t-6 -2q-8 0 -8 9t15 18l140 82q2 2 6 2t16 -7l130 -79q13 -8 13 -15q0 -10 -10 -10q-3 0 -16 5z" />
    <glyph glyph-name="tildecmb" unicode="&#x303;" horiz-adv-x="0" 
d="M-357 629q-28 0 -49 -21l-5 -5q-3 -4 -7 -4q-6 0 -6 6q0 4 15 19q32 31 70 31q26 0 71.5 -15.5t74.5 -15.5q34 0 54 19l9 9q4 4 8 4q5 0 5 -5v-1q-1 -7 -13 -19q-43 -36 -81 -36q-26 0 -75 17t-71 17z" />
    <glyph glyph-name="macroncmb" unicode="&#x304;" horiz-adv-x="0" 
d="M-115 632q0 -13 -20 -13h-274q-17 0 -17 13t18 13h273q20 0 20 -13z" />
    <glyph glyph-name="brevecmb" unicode="&#x306;" horiz-adv-x="0" 
d="M-270 579q-98 0 -145 71q-15 23 -15 32q0 7 6 7q5 0 18 -19q41 -60 136 -60q94 0 135 60q13 19 19 19q5 0 5 -7q0 -12 -14 -32q-49 -71 -145 -71z" />
    <glyph glyph-name="dotaccentcmb" unicode="&#x307;" horiz-adv-x="0" 
d="M-270 665q16 0 27 -10.5t11 -26.5t-11 -27.5t-27 -11.5t-27.5 11.5t-11.5 26.5q0 16 11.5 27t27.5 11z" />
    <glyph glyph-name="dieresiscmb" unicode="&#x308;" horiz-adv-x="0" 
d="M-182 662q15 0 26 -11t11 -27q0 -15 -10.5 -26t-26.5 -11t-27 11t-11 27q0 15 11 26t27 11zM-358 661q15 0 26 -10.5t11 -25.5q0 -16 -11 -27t-27 -11q-15 0 -26 11t-11 26q0 16 11 26.5t27 10.5z" />
    <glyph glyph-name="ringcmb" unicode="&#x30a;" horiz-adv-x="0" 
d="M-270 727q34 0 57.5 -23t23.5 -57t-23.5 -58t-57.5 -24t-58 24t-24 57q0 34 24 57.5t58 23.5zM-270 590q23 0 39 16.5t16 39.5q0 24 -16 40.5t-39 16.5t-39.5 -16.5t-16.5 -39.5t16.5 -40t39.5 -17z" />
    <glyph glyph-name="hungarumlautcmb" unicode="&#x30b;" horiz-adv-x="0" 
d="M-260 719q0 -4 -11 -20l-87 -123q-8 -12 -14 -12q-9 0 -9 10q0 7 5 12l83 127q12 18 21 18q12 0 12 -12zM-160 719q0 -4 -11 -20l-87 -123q-7 -12 -14 -12q-9 0 -9 10q0 7 5 12l83 127q12 18 21 18q12 0 12 -12z" />
    <glyph glyph-name="caroncmb" unicode="&#x30c;" horiz-adv-x="0" 
d="M-406 685l137 -76l132 78q8 5 16 5q10 0 10 -10q0 -7 -13 -15l-130 -79q-12 -7 -16 -7q-2 0 -6 2l-8 5l-132 77q-15 9 -15 18q0 8 8 8q6 0 17 -6z" />
    <glyph glyph-name="cedillacmb" unicode="&#x327;" horiz-adv-x="0" 
d="M-330 -63l29 63h27l-26 -60q28 6 47 6q37 0 60 -18t23 -46q0 -31 -29 -51t-73 -20q-58 0 -90 30q-10 9 -10 18q0 10 14 10q6 0 14 -6l6 -8q18 -24 66 -24q32 0 52.5 15t20.5 37q0 42 -65 42q-21 0 -42 -10q-10 -5 -17 -5q-4 0 -8.5 3.5t-4.5 7.5q0 3 6 16z" />
    <glyph glyph-name="ogonekcmb" unicode="&#x328;" horiz-adv-x="0" 
d="M-367 -110q0 60 81 110h34q-87 -53 -87 -109q0 -28 22 -46t55 -18q26 0 57 16q13 7 18 7q12 0 12 -11q0 -10 -18 -18q-31 -14 -68 -14q-47 0 -76.5 23t-29.5 60z" />
    <glyph glyph-name="soliduslongoverlaycmb" unicode="&#x338;" horiz-adv-x="0" 
d="M-259 239q-40 -100 -140 -365l-12 -32q-13 -35 -27 -35q-17 0 -17 15q0 10 22 63l230 571q55 140 64 165q16 45 21 55t15 10q15 0 15 -16q0 -8 -6 -21q-3 -6 -17 -43q-19 -49 -59 -148z" />
    <glyph glyph-name="Deltagreek" unicode="&#x394;" horiz-adv-x="667" 
d="M630 0h-593l283 667h26zM333 637l-260 -613h520z" />
    <glyph glyph-name="Deltagreek" unicode="&#x2206;" horiz-adv-x="667" 
d="M630 0h-593l283 667h26zM333 637l-260 -613h520z" />
    <glyph glyph-name="Omegagreek" unicode="&#x3a9;" horiz-adv-x="667" 
d="M282 0h-254v23h215q-215 120 -215 335q0 139 87.5 232t217.5 93t217.5 -93t87.5 -232q0 -104 -55.5 -191t-158.5 -144h215v-23h-254v22q56 33 86 57q143 114 143 279q0 128 -80.5 215t-199.5 87q-120 0 -200.5 -86.5t-80.5 -215.5q0 -120 78 -216q44 -54 125 -104
q3 -3 26 -16v-22z" />
    <glyph glyph-name="Omegagreek" unicode="&#x2126;" horiz-adv-x="667" 
d="M282 0h-254v23h215q-215 120 -215 335q0 139 87.5 232t217.5 93t217.5 -93t87.5 -232q0 -104 -55.5 -191t-158.5 -144h215v-23h-254v22q56 33 86 57q143 114 143 279q0 128 -80.5 215t-199.5 87q-120 0 -200.5 -86.5t-80.5 -215.5q0 -120 78 -216q44 -54 125 -104
q3 -3 26 -16v-22z" />
    <glyph glyph-name="pi" unicode="&#x3c0;" horiz-adv-x="509" 
d="M117 0h-25v508h-73v23h470v-23h-71v-508h-26v508h-275v-508z" />
    <glyph glyph-name="endash" unicode="&#x2013;" horiz-adv-x="500" 
d="M33 315v24h434v-24h-434z" />
    <glyph glyph-name="emdash" unicode="&#x2014;" horiz-adv-x="746" 
d="M715 259q0 -16 -31 -16h-626q-27 0 -27 17q0 16 29 16h624q31 0 31 -17z" />
    <glyph glyph-name="quoteleft" unicode="&#x2018;" horiz-adv-x="237" 
d="M144 686q14 0 14 -11q0 -2 -5 -10l-21 -28q-41 -55 -41 -114q0 -34 17 -34q4 0 13.5 2.5t12.5 2.5q17 0 28.5 -12.5t11.5 -30.5q0 -21 -14.5 -35t-35.5 -14q-61 0 -61 89q0 87 58 171q17 24 23 24z" />
    <glyph glyph-name="quoteright" unicode="&#x2019;" horiz-adv-x="237" 
d="M93 402q-14 0 -14 11q0 3 5 10q2 4 21 29q40 53 40 114q0 33 -16 33q-2 0 -14 -2q-5 -2 -13 -2q-16 0 -27.5 12.5t-11.5 29.5q0 21 14 35t36 14q61 0 61 -89q0 -85 -58 -171q-16 -24 -23 -24z" />
    <glyph glyph-name="quotesinglbase" unicode="&#x201a;" horiz-adv-x="237" 
d="M93 -206q-14 0 -14 12q0 3 4.5 9t21.5 29q40 54 40 115q0 32 -16 32q-8 0 -14 -2q-10 -2 -13 -2q-16 0 -27.5 13t-11.5 30q0 21 14 35t36 14q61 0 61 -89q0 -88 -58 -171q-17 -25 -23 -25z" />
    <glyph glyph-name="quotedblleft" unicode="&#x201c;" horiz-adv-x="400" 
d="M308 686q15 0 15 -11q0 -2 -5 -9.5t-21 -28.5q-41 -55 -41 -115q0 -33 16 -33q5 0 14.5 2.5t12.5 2.5q16 0 27.5 -12.5t11.5 -30.5q0 -21 -14.5 -35t-35.5 -14q-61 0 -61 89q0 86 58 171q16 24 23 24zM144 686q14 0 14 -11q0 -2 -5 -9t-21 -29q-41 -56 -41 -115
q0 -33 17 -33q5 0 14.5 2.5t12.5 2.5q16 0 27.5 -12.5t11.5 -30.5q0 -21 -14.5 -35t-35.5 -14q-61 0 -61 89q0 86 58 171q16 24 23 24z" />
    <glyph glyph-name="quotedblright" unicode="&#x201d;" horiz-adv-x="400" 
d="M93 402q-14 0 -14 11q0 3 5 10q1 1 21 29q40 54 40 114q0 33 -16 33q-2 0 -14 -2q-5 -2 -13 -2q-16 0 -27.5 12.5t-11.5 29.5q0 21 14 35t36 14q61 0 61 -89q0 -88 -60 -174q-15 -21 -21 -21zM257 402q-15 0 -15 11q0 1 6 10.5t20 28.5q41 56 41 114q0 33 -16 33
q-2 0 -14 -2q-5 -2 -13 -2q-16 0 -28 12.5t-12 29.5q0 21 14.5 35t35.5 14q62 0 62 -89q0 -88 -60 -174q-15 -21 -21 -21z" />
    <glyph glyph-name="quotedblbase" unicode="&#x201e;" horiz-adv-x="400" 
d="M93 -206q-14 0 -14 12q0 3 4.5 9t21.5 29q40 56 40 115q0 32 -16 32q-8 0 -14 -2q-10 -2 -13 -2q-16 0 -27.5 13t-11.5 30q0 21 14 35t36 14q61 0 61 -89t-58 -171q-18 -25 -23 -25zM256 -206q-14 0 -14 12q1 3 6 10q1 1 20 28q41 57 41 115q0 32 -17 32q-7 0 -13 -2
q-10 -2 -13 -2q-16 0 -28 13t-12 30q0 21 14.5 35t35.5 14q62 0 62 -89q0 -88 -58 -171q-17 -25 -24 -25z" />
    <glyph glyph-name="dagger" unicode="&#x2020;" 
d="M291 -139l8 560l-171 -10q-24 0 -24 19q0 18 25 18h5l165 -8l-8 212q0 22 19 22q17 0 17 -24v-3l-7 -207l168 8q27 0 27 -18q0 -19 -24 -19h-4l-167 10l7 -560q0 -29 -17 -29q-19 0 -19 29z" />
    <glyph glyph-name="daggerdbl" unicode="&#x2021;" 
d="M293 264q0 16 6 160l-171 -10q-24 0 -24 19q0 18 27 18h3l165 -7l-8 209q0 24 18 24t18 -24v-3l-7 -206l168 7q27 0 27 -18q0 -19 -24 -19h-4l-167 10q4 -76 4 -115v-19q-1 -13 -1 -19l-1 -91l-2 -81l170 10q25 0 25 -19q0 -18 -27 -18h-3l-165 8l7 -220q0 -24 -18 -24
t-18 23v4l8 217l-168 -8q-27 0 -27 18q0 19 25 19h3l167 -10q-6 144 -6 165z" />
    <glyph glyph-name="bullet" unicode="&#x2022;" horiz-adv-x="667" 
d="M196 340q0 58 40.5 99t97.5 41q56 0 96.5 -41t40.5 -99t-40.5 -99t-96.5 -41q-57 0 -97.5 41t-40.5 99z" />
    <glyph glyph-name="ellipsis" unicode="&#x2026;" horiz-adv-x="655" 
d="M108 82q20 0 34.5 -13.5t14.5 -32.5q0 -20 -14 -33.5t-34 -13.5t-34 14t-14 33t13.5 32.5t33.5 13.5zM327 82q20 0 34 -13.5t14 -32.5t-13.5 -33t-33.5 -14t-34 13.5t-14 33.5t13.5 33t33.5 13zM545 82q20 0 34 -13.5t14 -32.5t-13.5 -33t-33.5 -14t-34 13.5t-14 33.5
t13.5 33t33.5 13z" />
    <glyph glyph-name="perthousand" unicode="&#x2030;" horiz-adv-x="1183" 
d="M996 382q69 0 111 -54t42 -143q0 -90 -44.5 -147t-114.5 -57q-68 0 -110.5 53t-42.5 138q0 93 44.5 151.5t114.5 58.5zM437 557q-60 0 -112 43q20 -60 20 -113q0 -91 -43 -146t-113 -55t-112 53.5t-42 140.5q0 93 44 149.5t116 56.5q56 0 116 -50q37 -31 62.5 -41.5
t62.5 -10.5q46 0 91.5 25t67.5 62q10 17 20 17q15 0 15 -14q0 -10 -12 -27l-22 -32l-30 -47l-60 -96l-112 -177l-178 -295q-9 -16 -21 -16q-16 0 -16 14q0 9 28 52l70 107l92 145l157 257q6 11 21 37q-61 -39 -110 -39zM614 382q70 0 111.5 -54t41.5 -143q0 -90 -44.5 -147
t-114.5 -57q-68 0 -110 52.5t-42 138.5q0 93 44 151.5t114 58.5zM990 2q62 0 96 49.5t34 137.5q0 80 -33 125.5t-91 45.5q-60 0 -95 -51t-35 -139q0 -78 33 -123t91 -45zM187 308q60 0 94.5 49t34.5 135q0 81 -33 126.5t-92 45.5t-93.5 -51t-34.5 -136q0 -78 33.5 -123.5
t90.5 -45.5zM608 2q61 0 95.5 49t34.5 137q0 80 -33 126t-90 46q-60 0 -95.5 -51.5t-35.5 -138.5q0 -78 33.5 -123t90.5 -45z" />
    <glyph glyph-name="trademark" unicode="&#x2122;" horiz-adv-x="873" 
d="M238 666l79 1q19 0 19 -16q0 -6 -1 -28t-1 -42q0 -18 1 -23q1 -16 1 -27q0 -16 -11 -16q-12 0 -12 16q0 4 3 34q0 2 1 17v26q0 26 -5 33t-31 7h-71q-13 0 -15.5 -2.5t-2.5 -18.5l1 -288q0 -20 3 -25q5 -10 21 -10q11 0 17 1q3 0 8 1h6q15 0 15 -11t-15 -11l-5 1h-9
q-6 1 -16 2t-19 1q-4 1 -11 1h-15q-7 0 -11 -1q-9 0 -19 -1q-20 -2 -28 -2l-2 -1q-15 0 -15 10q0 12 15 12h6q5 -1 9.5 -1.5t15.5 -0.5q23 0 24 35l1 41v247q0 16 -1.5 18.5t-18.5 2.5h-66q-28 0 -32.5 -10.5t-4.5 -58.5v-15l2 -32q0 -17 -11 -17t-11 18v2l2 31v64l-1 22
q-1 17 22 17q13 0 29 -1q49 -3 126 -3h20q13 1 14 1zM589 306l-126 339l1 -306q0 -13 8 -31q5 -4 17 -4q11 0 15 0.5t9 1.5h6q16 0 16 -11t-16 -11l-5 1h-9l-16 2l-19 1l-10 1h-16l-10 -1l-19 -1l-16 -2h-10l-5 -1q-15 0 -15 10q0 12 16 12h6q5 -1 9 -1.5t15 -0.5
q16 0 20.5 9t4.5 26l1 41l-1 242q-1 28 -20 28q-5 0 -17 -2h-10q-6 -1 -8 -1q-16 0 -16 11t15 11q1 0 8 -1t14 -1h21h19q6 0 17 1q16 0 23 -20l123 -335l126 333q8 21 21 21h2l22 -1q4 -1 14 -1q7 0 21 1t21 1q15 0 15 -10q0 -11 -15 -11q-3 0 -17 2q-3 0 -9 1h-8
q-22 0 -22 -26v-2q0 -10 -1 -42v-46l1 -194q0 -20 4 -26q4 -9 21 -9q10 0 16 1q3 0 8 1h6q16 0 16 -11t-15 -11l-5 1h-10l-16 2l-19 1l-10 1h-16l-10 -1l-19 -1l-16 -2h-10l-5 -1q-15 0 -15 10q0 12 16 12h5q5 -1 9.5 -1.5t15.5 -0.5q23 0 24 35l2 79v223l-129 -335
q-7 -19 -19 -19q-13 0 -20 19z" />
    <glyph glyph-name="notequal" unicode="&#x2260;" horiz-adv-x="500" 
d="M33 420h248l54 117h25l-55 -117h161v-24h-172l-52 -112h225v-24h-236l-60 -128h-25l60 128h-172v24h183l53 112h-237v24z" />
    <glyph glyph-name="infinity" unicode="&#x221e;" horiz-adv-x="667" 
d="M506 195q-50 0 -89.5 28.5t-83.5 97.5q-45 -69 -84 -97.5t-88 -28.5q-63 0 -102 41t-39 107q0 63 39.5 103t102.5 40q90 0 171 -126q46 70 84.5 98t89.5 28q62 0 101 -41t39 -106q0 -64 -39.5 -104t-101.5 -40zM382 391q-12 -15 -35 -50q42 -67 78.5 -95t81.5 -28
q50 0 82.5 34t32.5 88t-32.5 88.5t-83.5 34.5q-68 0 -124 -72zM284 289q13 17 36 51q-42 67 -79 95t-82 28q-50 0 -82 -34t-32 -88t32 -88.5t83 -34.5q70 0 124 71z" />
    <glyph glyph-name="lessequal" unicode="&#x2264;" horiz-adv-x="500" 
d="M33 365l434 188v-26l-405 -174l405 -174v-26l-434 187v25zM33 123h434v-24h-434v24z" />
    <glyph glyph-name="greaterequal" unicode="&#x2265;" horiz-adv-x="500" 
d="M467 340l-434 -187v26l405 174l-405 174v26l434 -188v-25zM467 99h-434v24h434v-24z" />
    <glyph glyph-name="partialdiff" unicode="&#x2202;" horiz-adv-x="500" 
d="M196 621q-42 19 -103 29l4 25q68 -11 116 -33q116 -54 179 -179q56 -112 56 -236q0 -87 -36 -144q-28 -44 -74.5 -70t-97.5 -26q-85 0 -146.5 66.5t-61.5 158.5q0 95 61.5 160t150.5 65q110 0 166 -98q-36 131 -106 205q-46 49 -108 77zM422 218q0 87 -49 142t-127 55
q-79 0 -134 -59t-55 -145q0 -83 54 -142t130 -59q79 0 130 59t51 149z" />
    <glyph glyph-name="summation" unicode="&#x2211;" horiz-adv-x="667" 
d="M34 750h546v-209h-24l-1 186h-492l253 -455l-256 -499h504l1 184h24v-207h-555v28l253 495l-253 451v26z" />
    <glyph glyph-name="product" unicode="&#x220f;" horiz-adv-x="670" 
d="M34 727v23h602v-23h-75v-954h75v-23h-186v23h85v954h-400v-954h83v-23h-184v23h75v954h-75z" />
    <glyph glyph-name="integral" unicode="&#x222b;" horiz-adv-x="500" 
d="M180 -250q-22 0 -45 11l10 22q20 -10 38 -10q40 0 50 38q4 14 4 72l1 768q1 54 19 76.5t61 22.5q21 0 47 -11l-10 -22q-20 10 -38 10q-41 0 -51 -40q-3 -14 -3 -74v-727q0 -82 -16.5 -109t-66.5 -27z" />
    <glyph glyph-name="radical" unicode="&#x221a;" horiz-adv-x="667" 
d="M436 827h231v-23h-211l-258 -804h-21l-103 323h-74v23h93l94 -295h1l8 24l23 73l30 98z" />
    <glyph glyph-name="approxequal" unicode="&#x2248;" horiz-adv-x="500" 
d="M137 429q-58 0 -105 -82l-20 13q54 95 126 95q38 0 118 -42q72 -38 106 -38q58 0 106 81l20 -12q-55 -95 -127 -95q-36 0 -137 52q-54 28 -87 28zM137 292q-58 0 -105 -82l-20 13q54 95 126 95q38 0 118 -42q72 -38 106 -38q58 0 106 82l20 -12q-54 -95 -127 -95
q-37 0 -137 51q-55 28 -87 28z" />
    <glyph glyph-name="approxequal" unicode="&#x22f2;" horiz-adv-x="500" 
d="M137 429q-58 0 -105 -82l-20 13q54 95 126 95q38 0 118 -42q72 -38 106 -38q58 0 106 81l20 -12q-55 -95 -127 -95q-36 0 -137 52q-54 28 -87 28zM137 292q-58 0 -105 -82l-20 13q54 95 126 95q38 0 118 -42q72 -38 106 -38q58 0 106 82l20 -12q-54 -95 -127 -95
q-37 0 -137 51q-55 28 -87 28z" />
    <glyph glyph-name="lozenge" unicode="&#x25ca;" horiz-adv-x="667" 
d="M74 334l259 359l260 -359l-260 -360zM564 334l-231 317l-231 -317l231 -318z" />
    <glyph glyph-name="fraction" unicode="&#x2044;" horiz-adv-x="91" 
d="M-104 10q-8 -17 -18 -17q-14 0 -14 14q0 11 23 53l58 106q70 127 139 268l55 111l58 111q7 17 17 17q13 0 13 -14q0 -9 -10 -27l-18 -32z" />
    <glyph glyph-name="guilsinglleft" unicode="&#x2039;" horiz-adv-x="236" 
d="M81 259q0 -7 6 -18l80 -143q5 -12 5 -16q0 -10 -11 -10q-7 0 -16 15l-92 154q-7 12 -7 18q0 5 7 17l92 154q9 15 16 15q11 0 11 -10q0 -3 -5 -15l-80 -144q-6 -11 -6 -17z" />
    <glyph glyph-name="guilsinglright" unicode="&#x203a;" horiz-adv-x="236" 
d="M155 259q0 8 -5 17l-80 144q-6 11 -6 15q0 10 11 10q8 0 17 -15l92 -154q7 -12 7 -17q0 -6 -7 -18l-92 -154q-9 -15 -17 -15q-11 0 -11 10q0 5 6 16l80 143q5 12 5 18z" />
    <glyph glyph-name="uniE003" unicode="&#xe003;" horiz-adv-x="280" 
 />
    <glyph glyph-name="Euro" unicode="&#x20ac;" 
d="M101 274q24 -271 243 -271q95 0 148 52.5t58 151.5q1 40 14 40q15 0 15 -20q0 -112 -65 -179t-174 -67q-118 0 -187 75.5t-81 217.5h-44q-25 0 -25 14q0 12 22 12h45q-1 10 -1 34q0 16 2 45h-43q-25 0 -25 14q0 12 22 12h48q17 136 86.5 208.5t183.5 72.5q136 0 192 -129
v16l-2 30v27l-1 3q0 29 15 29q12 0 12 -16l-7 -129q0 -28 2.5 -53t2.5 -26q0 -18 -13 -18q-15 0 -15 23q0 11 1 20q2 10 2 20q0 72 -53 126.5t-137 54.5q-101 0 -162.5 -66.5t-76.5 -192.5h184q29 0 29 -13t-31 -13h-184q-2 -29 -2 -47q0 -22 1 -32h187q29 0 29 -13t-31 -13
h-184z" />
    <glyph glyph-name="apple" unicode="&#xf8ff;" horiz-adv-x="667" 
d="M332 518q1 73 40.5 118.5t107.5 54.5v-10q0 -65 -44.5 -114t-103.5 -49zM479 528q91 0 144 -71q-80 -62 -80 -140q0 -106 99 -148q-79 -196 -169 -196q-18 0 -40 9l-41 17q-10 4 -33 4q-39 0 -51 -5l-43 -18q-19 -8 -38 -8q-55 0 -111 82q-84 124 -84 252q0 97 52 158.5
t135 61.5q31 0 77 -18q31 -12 48 -12q16 0 43 10q59 22 92 22z" />
    <glyph glyph-name="uniE001" unicode="&#xe001;" horiz-adv-x="0" 
 />
    </font>
</defs>
</svg>
