<?xml version="1.0" standalone="no"?>
<!DOCTYPE svg PUBLIC "-//W3C//DTD SVG 1.1//EN" "http://www.w3.org/Graphics/SVG/1.1/DTD/svg11.dtd" >
<svg xmlns="http://www.w3.org/2000/svg">
<metadata></metadata>
<defs>
<font id="abeezeeitalic" horiz-adv-x="600" >
<font-face units-per-em="1000" ascent="800" descent="-200" />
<missing-glyph horiz-adv-x="300" />
<glyph horiz-adv-x="0" />
<glyph horiz-adv-x="0" />
<glyph horiz-adv-x="0" />
<glyph horiz-adv-x="0" />
<glyph horiz-adv-x="0" />
<glyph horiz-adv-x="0" />
<glyph horiz-adv-x="0" />
<glyph horiz-adv-x="0" />
<glyph unicode="&#x9;" horiz-adv-x="0" />
<glyph unicode="&#xd;" horiz-adv-x="300" />
<glyph horiz-adv-x="0" />
<glyph horiz-adv-x="0" />
<glyph horiz-adv-x="0" />
<glyph horiz-adv-x="0" />
<glyph horiz-adv-x="0" />
<glyph horiz-adv-x="0" />
<glyph horiz-adv-x="0" />
<glyph horiz-adv-x="0" />
<glyph horiz-adv-x="0" />
<glyph horiz-adv-x="0" />
<glyph unicode=" "  horiz-adv-x="300" />
<glyph unicode="&#x09;" horiz-adv-x="300" />
<glyph unicode="&#xa0;" horiz-adv-x="300" />
<glyph unicode="!" horiz-adv-x="314" d="M187 729h100l-44 -249l-61 -273h-74l35 273zM114 -12q-29 0 -45.5 17t-16.5 40q0 37 22.5 57t51.5 20t45.5 -17t16.5 -40q0 -37 -22.5 -57t-51.5 -20z" />
<glyph unicode="&#x22;" horiz-adv-x="300" d="M183 700l-47 -223h-71l31 223h87zM345 700l-47 -223h-71l31 223h87z" />
<glyph unicode="#" horiz-adv-x="750" d="M94 0l43 124h-90l24 73h92l88 250h-91l24 73h92l44 124h80l-44 -124h196l44 124h80l-44 -124h92l-24 -73h-93l-88 -250h91l-24 -73h-93l-43 -124h-80l43 124h-196l-43 -124h-80zM243 197h196l88 250h-196z" />
<glyph unicode="$" d="M418 679q38 -6 71 -18.5t63 -29.5l-46 -72q-33 20 -68 34.5t-83 14.5q-55 0 -89.5 -23.5t-34.5 -61.5q0 -32 24.5 -59.5t88.5 -61.5q44 -24 73.5 -47t47.5 -47t25.5 -50.5t7.5 -57.5q0 -41 -14.5 -73t-41 -55t-63 -36.5t-80.5 -17.5l-11 -113h-88l29 113q-53 5 -94.5 22 t-76.5 46l57 71q32 -29 71 -46.5t90 -17.5q60 0 95.5 26.5t35.5 71.5q0 19 -5.5 35t-20.5 32.5t-40 34.5t-64 40q-36 21 -61.5 40t-41 40t-23 45.5t-7.5 54.5q0 36 15 66.5t42 52.5t64.5 35t82.5 15l11 113h88z" />
<glyph unicode="%" horiz-adv-x="900" d="M157 1l563 739l55 -40l-563 -739zM415 547q0 -41 -10.5 -89t-35 -90t-65 -70t-100.5 -28q-71 0 -109 43t-38 118q0 42 10.5 90t35.5 89.5t66 69t102 27.5q70 0 107 -42t37 -118zM210 337q37 0 60.5 23.5t37 57.5t18.5 70.5t5 62.5q0 44 -17 67t-52 23q-37 0 -60.5 -23.5 t-37 -57t-18.5 -70.5t-5 -63q0 -90 69 -90zM873 270q0 -41 -10.5 -89t-35 -90t-65 -70t-100.5 -28q-71 0 -109 43t-38 118q0 42 10.5 90t35.5 89.5t66 69t102 27.5q70 0 107 -42t37 -118zM668 60q37 0 60.5 23.5t37 57.5t18.5 70.5t5 62.5q0 44 -17 67t-52 23 q-37 0 -60.5 -23.5t-37 -57t-18.5 -70.5t-5 -63q0 -90 69 -90z" />
<glyph unicode="&#x26;" horiz-adv-x="761" d="M607 327q-9 -85 -37 -148.5t-71 -106t-99 -63.5t-121 -21q-46 0 -86 13.5t-69.5 37t-46.5 56t-17 71.5q0 71 42.5 125t132.5 84q-51 31 -73.5 66.5t-22.5 84.5q0 42 17.5 76.5t48 59t71 37.5t86.5 13q60 0 105 -16.5t83 -42.5l-50 -73q-26 20 -60.5 36t-77.5 16 q-27 0 -51 -8t-42.5 -22.5t-29 -36t-10.5 -48.5q0 -23 11 -44t30.5 -37.5t47.5 -26t61 -9.5h258q34 0 54 8.5t35 25.5l25 -64q-15 -23 -41.5 -33t-64.5 -10h-38zM297 70q48 0 88.5 18t70.5 51t49.5 80.5t27.5 107.5h-168q-49 0 -88 -11t-66 -30.5t-41.5 -45t-14.5 -55.5 q0 -26 11 -47t30.5 -36t45 -23.5t55.5 -8.5z" />
<glyph unicode="'" horiz-adv-x="150" d="M190 700l-47 -222h-71l31 222h87z" />
<glyph unicode="(" horiz-adv-x="300" d="M330 729q-83 -134 -130.5 -270.5t-47.5 -293.5q0 -72 8 -138t22 -126l-55 -24q-30 77 -48.5 160.5t-18.5 161.5t16 151.5t45 143.5t69 137t89 132z" />
<glyph unicode=")" horiz-adv-x="300" d="M-10 -89q41 67 74 134t56 136.5t35.5 142t12.5 151.5q0 72 -8 138t-22 126l55 24q30 -77 48.5 -160.5t18.5 -161.5t-16 -151.5t-45 -143.5t-69 -137t-89 -132z" />
<glyph unicode="*" horiz-adv-x="450" d="M239 617l-9 123h80l-9 -121l114 44l23 -75l-116 -29l77 -94l-64 -46l-64 103l-66 -104l-63 47l76 92l-117 30l24 76z" />
<glyph unicode="+" d="M342 304l-29 -162h-85l29 162h-153l13 78h153l29 163h85l-29 -163h152l-13 -78h-152z" />
<glyph unicode="," horiz-adv-x="300" d="M193 65q-22 -77 -68.5 -133.5t-112.5 -91.5l-47 28q49 51 82.5 103t59.5 119z" />
<glyph unicode="-" d="M127 302l15 82h340l-15 -82h-340z" />
<glyph unicode="." horiz-adv-x="300" d="M119 -12q-29 0 -45.5 17t-16.5 40q0 37 22.5 57t51.5 20t45.5 -17t16.5 -40q0 -37 -22.5 -57t-51.5 -20z" />
<glyph unicode="/" horiz-adv-x="450" d="M0 -35l418 808l70 -36l-418 -808z" />
<glyph unicode="0" d="M271 70q48 0 84.5 32t61 85t37.5 123t13 146q0 85 -29.5 129.5t-88.5 44.5q-48 0 -84.5 -32t-61 -85t-37.5 -123t-13 -146q0 -85 29.5 -129.5t88.5 -44.5zM261 -12q-100 0 -152.5 70.5t-52.5 191.5q0 84 18 167t55 148.5t94.5 106t135.5 40.5q100 0 152.5 -70.5 t52.5 -191.5q0 -84 -18 -167t-55 -148.5t-94.5 -106t-135.5 -40.5z" />
<glyph unicode="1" d="M254 80l89 503l-149 -104l-41 72l234 149h66l-109 -620h119l-14 -80h-352l14 80h143z" />
<glyph unicode="2" d="M539 543q0 -53 -25.5 -93.5t-64 -75t-84.5 -66t-88 -65t-74 -72.5t-41 -89h318l-14 -82h-402q-2 8 -2.5 18t-0.5 19q0 69 28 122.5t70.5 96t92 77t92 67t70.5 65t28 71.5q0 45 -29.5 70.5t-74.5 25.5q-43 0 -77.5 -16t-68.5 -45l-42 68q41 33 88.5 53t110.5 20 q42 0 77 -12.5t60 -35t39 -53.5t14 -68z" />
<glyph unicode="3" d="M161 328l12 73h32q49 0 89 9t68 26t43.5 41.5t15.5 55.5q0 46 -31.5 73.5t-80.5 27.5q-46 0 -79 -14.5t-59 -33.5l-35 68q35 25 80 41.5t104 16.5q46 0 82 -13.5t61 -36t38 -52.5t13 -62q0 -71 -41 -114t-120 -67q63 -23 97 -65.5t34 -101.5q0 -48 -19 -87.5t-53 -67 t-81 -42.5t-102 -15q-57 0 -107.5 15.5t-85.5 42.5l53 71q25 -21 60 -35t80 -14q34 0 63 8.5t50 24.5t33 40t12 55q0 27 -11 51t-32.5 42t-54.5 28.5t-77 10.5h-51z" />
<glyph unicode="4" d="M433 151l-26 -151h-88l26 151h-298l12 70l293 486l77 -33l-265 -443h195l36 199h88l-36 -199h86l-14 -80h-86z" />
<glyph unicode="5" d="M95 122q27 -24 63.5 -38t81.5 -14q36 0 66.5 10t53 29t35.5 46t13 61q0 58 -42.5 95t-123.5 37h-99l61 352h345l-14 -81h-260l-33 -190h19q61 0 107 -16t76.5 -43.5t45.5 -64t15 -76.5q0 -54 -19.5 -98t-55 -76t-85.5 -49.5t-110 -17.5t-110.5 15.5t-83.5 41.5z" />
<glyph unicode="6" d="M492 620q-239 0 -310 -247q29 32 69.5 51t91.5 19q40 0 74.5 -14.5t59.5 -40t39 -61t14 -77.5q0 -55 -18 -103t-50.5 -83t-78.5 -55.5t-102 -20.5q-48 0 -87.5 16t-68 46t-44.5 74.5t-16 101.5q0 59 12 117t35.5 111t59 98.5t83.5 78.5t108 52t132 19q9 0 23.5 -0.5 t24.5 -1.5l-14 -82q-8 1 -18.5 1.5t-18.5 0.5zM318 368q-46 0 -83.5 -21t-73.5 -66q-3 -24 -3 -53q0 -73 35.5 -116.5t91.5 -43.5q32 0 60 13.5t48.5 37t32 55t11.5 67.5q0 57 -34 92t-85 35z" />
<glyph unicode="7" d="M128 0q14 84 31 151.5t38.5 123t48 101t59.5 86.5t73.5 78.5t89.5 77.5h-333l14 82h443l-12 -72q-56 -47 -99.5 -90t-78 -86.5t-60.5 -90t-46 -100.5t-36 -118.5t-31 -142.5h-101z" />
<glyph unicode="8" d="M234 384q-48 30 -71.5 64.5t-23.5 82.5q0 39 17.5 72t47 57.5t69.5 38t85 13.5q46 0 83 -13.5t63 -36.5t40 -52.5t14 -60.5q0 -66 -39.5 -106.5t-115.5 -68.5q68 -32 100.5 -73t32.5 -100q0 -49 -20.5 -88.5t-56.5 -67t-84.5 -42.5t-104.5 -15q-49 0 -91 13.5t-72.5 37.5 t-48 57t-17.5 73q0 79 48 131t145 84zM280 68q31 0 60.5 9t51.5 25.5t35.5 40.5t13.5 54q0 44 -35 81t-100 61q-33 -7 -63.5 -20t-54 -32.5t-38 -45.5t-14.5 -58q0 -24 11 -45t30 -36.5t45.5 -24.5t57.5 -9zM353 638q-23 0 -45.5 -6.5t-40 -20t-28 -33.5t-10.5 -46 q0 -38 30.5 -68.5t75.5 -52.5q27 8 51.5 20.5t42.5 29t28.5 36t10.5 41.5q0 20 -8.5 38.5t-23.5 32t-36 21.5t-47 8z" />
<glyph unicode="9" d="M246 70q30 0 59.5 15.5t55 48t45.5 82.5t31 119q-34 -32 -73 -48.5t-80 -16.5q-39 0 -74 13.5t-61.5 38.5t-42 61.5t-15.5 82.5q0 51 18.5 96t51.5 78.5t78 52.5t98 19q97 0 153 -61q27 -29 41 -68t14 -93q0 -94 -17.5 -184t-54.5 -160.5t-95 -114t-139 -43.5 q-58 0 -104.5 21.5t-78.5 56.5l69 64q25 -29 54 -44.5t67 -15.5zM452 478q0 75 -33.5 114.5t-89.5 39.5q-30 0 -56.5 -12t-46 -33.5t-31 -51t-11.5 -63.5q0 -58 32.5 -93t86.5 -35q38 0 76.5 18t69.5 53q2 18 2.5 32t0.5 31z" />
<glyph unicode=":" horiz-adv-x="300" d="M113 -12q-29 0 -45.5 17t-16.5 40q0 37 22.5 57t51.5 20t45.5 -17t16.5 -40q0 -37 -22.5 -57t-51.5 -20zM186 398q-29 0 -45.5 17t-16.5 40q0 37 22.5 57t51.5 20t45.5 -17t16.5 -40q0 -37 -22.5 -57t-51.5 -20z" />
<glyph unicode=";" horiz-adv-x="300" d="M169 65q-22 -77 -68.5 -133.5t-112.5 -91.5l-47 28q49 51 82.5 103t59.5 119zM184 398q-29 0 -45.5 17t-16.5 40q0 37 22.5 57t51.5 20t45.5 -17t16.5 -40q0 -37 -22.5 -57t-51.5 -20z" />
<glyph unicode="&#x3c;" d="M509 502l-287 -165l231 -159l-58 -64l-284 200l10 57l352 201z" />
<glyph unicode="=" d="M116 395l14 79h395l-14 -79h-395zM85 213l14 79h395l-14 -79h-395z" />
<glyph unicode="&#x3e;" d="M91 184l287 165l-231 159l58 64l284 -200l-10 -57l-352 -201z" />
<glyph unicode="?" horiz-adv-x="498" d="M398 584q0 37 -27.5 61.5t-72.5 24.5q-44 0 -81.5 -24t-69.5 -63l-60 60q44 50 97 79.5t127 29.5q40 0 73.5 -12t58.5 -33.5t39 -51t14 -63.5q0 -44 -17.5 -75t-44.5 -54.5t-59 -43t-60.5 -41t-50 -47.5t-26.5 -62l-9 -62h-73q-2 12 -3 26.5t-1 28.5q0 51 18 86 t45.5 60.5t59.5 44.5t59.5 38t45.5 40.5t18 52.5zM178 -12q-29 0 -45.5 17t-16.5 40q0 37 22.5 57t51.5 20t45.5 -17t16.5 -40q0 -37 -22.5 -57t-51.5 -20z" />
<glyph unicode="@" horiz-adv-x="1050" d="M724 52q28 0 57.5 20.5t52.5 58t38 90t15 115.5q0 64 -22 118t-62 93.5t-95.5 62t-122.5 22.5q-92 0 -169.5 -36.5t-133.5 -99t-87 -146.5t-31 -179q0 -75 24 -135t66.5 -102t100.5 -64t126 -22q75 0 135.5 18.5t114.5 43.5l16 -78q-51 -25 -120 -44.5t-157 -19.5 q-86 0 -159 26.5t-126 77.5t-83 125t-30 169q0 122 39 222.5t108 172.5t164 111.5t206 39.5q91 0 163.5 -28.5t122.5 -78t77 -115.5t27 -142q0 -78 -21.5 -144t-58 -114t-85 -75t-102.5 -27t-81.5 27t-27.5 78v9q-23 -42 -62 -72t-87 -30q-30 0 -59 11t-52 34t-37 58t-14 83 q0 65 21.5 119t60 93t92 60.5t118.5 21.5q52 0 90.5 -10.5t63.5 -21.5l-59 -332q-1 -5 -1.5 -10.5t-0.5 -10.5q0 -21 12.5 -32t34.5 -11zM478 70q23 0 45.5 12t41.5 33t33.5 51t20.5 66l31 171q-14 5 -30.5 7t-42.5 2q-45 0 -82.5 -15.5t-64.5 -43.5t-42 -67.5t-15 -88.5 q0 -61 31.5 -94t73.5 -33z" />
<glyph unicode="A" horiz-adv-x="663" d="M-28 37l384 663h107l153 -689l-91 -21l-42 200h-324l-111 -198zM204 270h262l-71 337z" />
<glyph unicode="B" horiz-adv-x="617" d="M160 692q46 9 89 14.5t98 5.5q60 0 105 -14.5t74.5 -38.5t44 -55.5t14.5 -64.5q0 -69 -37.5 -111t-112.5 -64q28 -11 51.5 -25.5t40.5 -34.5t26.5 -45t9.5 -56q0 -54 -25 -94.5t-68 -67.5t-99 -40t-117 -13q-72 0 -124.5 10.5t-87.5 21.5zM190 324l-42 -243 q53 -14 113 -14q99 0 152 37.5t53 95.5q0 25 -10.5 47.5t-33.5 39.5t-58.5 27t-86.5 10h-87zM343 637q-31 0 -55 -2t-44 -6l-41 -231h98q48 0 84 10.5t60 28t35.5 40.5t11.5 49q0 47 -37.5 79t-111.5 32z" />
<glyph unicode="C" horiz-adv-x="560" d="M406 629q-55 0 -102.5 -25t-83 -70t-55.5 -106.5t-20 -134.5q0 -54 14 -95.5t39 -69.5t59.5 -42.5t75.5 -14.5q47 0 83.5 13t71.5 31l16 -86q-37 -17 -82 -29t-102 -12q-62 0 -112 20t-86 58t-55.5 93.5t-19.5 126.5q0 90 27 168t75.5 135t116 90t148.5 33 q60 0 104.5 -16t74.5 -33l-43 -78q-30 19 -63 31.5t-81 12.5z" />
<glyph unicode="D" horiz-adv-x="663" d="M159 692q41 9 82 14.5t101 5.5q79 0 136 -25.5t93 -68.5t53 -98.5t17 -116.5q0 -90 -27.5 -166.5t-78.5 -131.5t-124 -86t-164 -31q-64 0 -114 8.5t-91 23.5zM334 632q-26 0 -49 -2.5t-43 -7.5l-94 -539q23 -6 49 -9.5t56 -3.5q65 0 118.5 23.5t91.5 66.5t59 103t21 132 q0 47 -12.5 90t-38 75.5t-65 52t-93.5 19.5z" />
<glyph unicode="E" horiz-adv-x="542" d="M165 700h415l-14 -82h-321l-37 -213h275l-14 -80h-275l-43 -243h320l-14 -82h-415z" />
<glyph unicode="F" horiz-adv-x="507" d="M165 700h410l-14 -82h-316l-37 -214h262l-14 -78h-262l-57 -326h-95z" />
<glyph unicode="G" horiz-adv-x="662" d="M410 629q-57 0 -105.5 -25.5t-84 -71t-55.5 -109.5t-20 -140q0 -47 11.5 -86t33 -67t53 -43.5t71.5 -15.5q34 0 65 13.5t56 37t42 55.5t24 70l9 49h-146l13 75h235l-39 -225q-1 -5 -1.5 -11.5t-0.5 -13.5q0 -27 15.5 -39t43.5 -12l-33 -75q-110 0 -110 107 q-31 -48 -80 -81t-119 -33q-52 0 -96 19t-76.5 55.5t-50.5 89t-18 118.5q0 95 27 176t75.5 140t116.5 92.5t149 33.5q64 0 112.5 -17.5t90.5 -44.5l-50 -76q-36 25 -72.5 40t-85.5 15z" />
<glyph unicode="H" horiz-adv-x="701" d="M527 319h-334l-56 -319h-95l123 700h95l-53 -299h334l53 299h95l-123 -700h-95z" />
<glyph unicode="I" horiz-adv-x="272" d="M42 0l123 700h95l-123 -700h-95z" />
<glyph unicode="J" horiz-adv-x="411" d="M111 -12q-51 0 -90.5 19.5t-68.5 51.5l58 70q20 -25 45.5 -42t59.5 -17q36 0 65.5 27.5t42.5 96.5l91 506h95l-91 -510q-12 -66 -36.5 -106t-53.5 -61.5t-60.5 -28t-56.5 -6.5z" />
<glyph unicode="K" horiz-adv-x="597" d="M443 157q21 -26 36.5 -42t29.5 -25t27.5 -12.5t30.5 -3.5l-35 -81q-44 0 -75.5 18t-66.5 62l-196 250l-57 -323h-95l123 700h95l-55 -311l332 309l58 -64l-310 -278z" />
<glyph unicode="L" horiz-adv-x="510" d="M165 700h95l-108 -615h321l-15 -85h-416z" />
<glyph unicode="M" horiz-adv-x="831" d="M704 585l-259 -427h-93l-117 431l-103 -589h-90l123 700h129l118 -446l264 446h143l-123 -700h-95z" />
<glyph unicode="N" horiz-adv-x="702" d="M234 584l-102 -584h-90l123 700h126l205 -588l104 588h90l-123 -700h-124z" />
<glyph unicode="O" horiz-adv-x="738" d="M416 630q-64 0 -114.5 -27.5t-85.5 -73.5t-53.5 -105.5t-18.5 -122.5q0 -48 13 -90t38.5 -73.5t63.5 -49.5t88 -18q64 0 114.5 27.5t85.5 73.5t53.5 105.5t18.5 122.5q0 48 -13 90t-38.5 73.5t-63.5 49.5t-88 18zM339 -12q-71 0 -125 24t-91.5 65t-56.5 97t-19 121 q0 80 25.5 155t73.5 133.5t118 93.5t160 35q70 0 124.5 -24t92 -65t56.5 -97.5t19 -120.5q0 -80 -25.5 -155t-73.5 -133.5t-118 -93.5t-160 -35z" />
<glyph unicode="P" horiz-adv-x="560" d="M163 690q38 8 81 13t97 5q61 0 106.5 -17t75.5 -45t45 -64.5t15 -76.5q0 -62 -23.5 -108.5t-64.5 -78t-97.5 -47.5t-123.5 -16q-24 0 -47.5 2.5t-43.5 7.5l-46 -265h-95zM331 629q-27 0 -47.5 -2t-37.5 -5l-49 -277q20 -6 43.5 -8.5t46.5 -2.5q54 0 92 12t63 33 t36.5 50.5t11.5 64.5q0 60 -41.5 97.5t-117.5 37.5z" />
<glyph unicode="Q" horiz-adv-x="746" d="M334 -12q-70 0 -123.5 24t-90 65.5t-55 97.5t-18.5 120q0 80 24.5 155t72 133.5t116.5 93.5t159 35q70 0 123.5 -24t90 -65.5t55 -97.5t18.5 -120q0 -93 -28.5 -162t-74.5 -125q33 -26 59 -37.5t52 -11.5l-34 -81q-16 0 -29.5 3t-28.5 11.5t-33.5 23.5t-43.5 39 q-47 -39 -97.5 -58t-113.5 -19zM471 245l70 -75q33 45 50.5 105t17.5 124q0 48 -12.5 90t-37.5 73.5t-62 49.5t-86 18q-64 0 -114 -27.5t-84 -73.5t-51.5 -105.5t-17.5 -122.5q0 -47 12.5 -89t37 -73.5t61.5 -50t87 -18.5q45 0 79.5 12.5t66.5 35.5l-73 69z" />
<glyph unicode="R" horiz-adv-x="621" d="M164 690q45 8 84.5 13t92.5 5q57 0 100.5 -14t73.5 -38t45 -56.5t15 -69.5q0 -45 -15.5 -79t-43 -58t-66.5 -38.5t-86 -21.5q41 -19 64 -45t36 -54.5t21 -57t19 -51t29 -36.5t51 -14l-35 -82q-52 0 -80 23t-45.5 58t-31 75t-36 75t-60.5 58t-105 23l-54 -305h-95z M335 629q-26 0 -47.5 -2t-40.5 -6l-42 -236h83q88 0 140.5 36t52.5 97q0 49 -38.5 80t-107.5 31z" />
<glyph unicode="S" horiz-adv-x="539" d="M386 177q0 21 -6 38.5t-22 35.5t-42.5 37.5t-68.5 42.5q-39 22 -66 43t-44.5 44t-25 50t-7.5 60q0 42 17 76t48 58t74 37t95 13q63 0 113.5 -15.5t95.5 -41.5l-49 -78q-36 23 -75.5 38t-92.5 15q-60 0 -95.5 -25.5t-35.5 -66.5q0 -19 6 -35t19.5 -31t36.5 -31t58 -34 q49 -26 81 -51.5t50.5 -51.5t25.5 -55t7 -63q0 -46 -18 -83t-51 -62.5t-79 -39t-101 -13.5q-72 0 -130 19.5t-102 54.5l62 77q34 -31 79.5 -49.5t100.5 -18.5q65 0 103.5 28.5t38.5 77.5z" />
<glyph unicode="T" horiz-adv-x="554" d="M92 700h525l-15 -84h-215l-108 -616h-95l108 616h-215z" />
<glyph unicode="U" horiz-adv-x="681" d="M585 -5q-56 0 -84.5 26t-28.5 83v22q-41 -63 -95 -100.5t-128 -37.5q-38 0 -72 12.5t-59.5 37t-40.5 60.5t-15 83q0 23 2 42.5t6 43.5l74 433h95l-77 -454q-3 -18 -4 -30.5t-1 -27.5q0 -54 32 -85.5t87 -31.5q34 0 69 16t65 46.5t52.5 75.5t32.5 103l69 388h95l-98 -554 q-1 -5 -1.5 -11.5t-0.5 -13.5q0 -27 15.5 -39t43.5 -12z" />
<glyph unicode="V" horiz-adv-x="622" d="M67 691l95 20l121 -607l318 604l84 -46l-363 -662h-109z" />
<glyph unicode="W" horiz-adv-x="941" d="M82 697l98 10l54 -606l244 526h119l56 -526l267 603l84 -39l-308 -665h-118l-57 526l-245 -526h-118z" />
<glyph unicode="X" horiz-adv-x="621" d="M269 362l-178 296l85 51l158 -284l240 281l70 -63l-263 -290l194 -312l-85 -51l-174 298l-254 -295l-70 63z" />
<glyph unicode="Y" horiz-adv-x="562" d="M131 70q60 0 103 76l43 78l-132 353q-10 27 -27.5 38t-47.5 11l40 79q54 0 81 -21.5t44 -70.5l101 -295l215 390l79 -43l-301 -525q-23 -40 -45 -69t-46.5 -47.5t-52 -27t-61.5 -8.5q-39 0 -74 15t-58 40l58 68q16 -18 36 -29.5t45 -11.5z" />
<glyph unicode="Z" horiz-adv-x="563" d="M5 74l439 544h-341l14 82h459l-12 -72l-442 -544h380l-15 -84h-495z" />
<glyph unicode="[" horiz-adv-x="300" d="M34 -100l149 840h174l-14 -75h-94l-123 -690h96l-14 -75h-174z" />
<glyph unicode="\" horiz-adv-x="450" d="M278 -71l-140 832l73 12l140 -832z" />
<glyph unicode="]" horiz-adv-x="300" d="M116 -100h-173l14 75h92l122 690h-94l14 75h174z" />
<glyph unicode="^" d="M473 510l-121 146l-179 -146l-49 62l216 168h42l154 -172z" />
<glyph unicode="_" d="M-50 -55h600l-11 -60h-599z" />
<glyph unicode="`" horiz-adv-x="309" d="M233 575l-193 109l52 76l177 -130z" />
<glyph unicode="a" horiz-adv-x="592" d="M37 205q0 72 24.5 132.5t68.5 103.5t105 67t133 24q59 0 103.5 -12t73.5 -24l-63 -355q-1 -5 -1.5 -11.5t-0.5 -13.5q0 -28 16 -39.5t42 -11.5l-31 -70q-54 0 -82.5 26t-28.5 83q-28 -48 -70.5 -82t-99.5 -34q-37 0 -71 15t-60.5 43t-42 68.5t-15.5 90.5zM446 443 q-19 6 -39.5 9.5t-49.5 3.5q-52 0 -94 -18t-72 -50t-46 -76t-16 -96q0 -36 10.5 -63.5t27.5 -46.5t38.5 -28.5t44.5 -9.5q30 0 57.5 16t49.5 45.5t38 70t24 88.5z" />
<glyph unicode="b" horiz-adv-x="573" d="M541 340q0 -75 -26.5 -139t-73.5 -111.5t-112 -74.5t-142 -27q-47 0 -85.5 8.5t-64.5 21.5l127 722h90l-57 -325q29 54 74.5 85.5t102.5 31.5q36 0 66.5 -14t53 -39.5t35 -60.5t12.5 -78zM351 454q-27 0 -56 -13.5t-55 -45t-48 -82.5t-35 -126l-20 -111q16 -4 33.5 -6 t37.5 -2q51 0 95.5 20t76.5 55t50.5 82.5t18.5 102.5q0 58 -27 92t-71 34z" />
<glyph unicode="c" horiz-adv-x="460" d="M431 415q-26 16 -54.5 26.5t-63.5 10.5q-42 0 -76 -17t-58 -46.5t-37 -69.5t-13 -86q0 -76 38 -120.5t104 -44.5q38 0 67 9t53 21l11 -79q-25 -11 -60.5 -21t-85.5 -10q-49 0 -89 16.5t-69 47.5t-45 73.5t-16 95.5q0 63 19.5 119t56.5 99t89 68t118 25q47 0 83 -11.5 t65 -28.5z" />
<glyph unicode="d" horiz-adv-x="607" d="M519 -5q-54 0 -82.5 26.5t-28.5 83.5q-29 -48 -73 -82.5t-102 -34.5q-38 0 -72.5 15t-61 43t-42 68.5t-15.5 90.5q0 76 23.5 137t61 103t84.5 64.5t95 22.5q54 0 92 -26t59 -64l53 298h90l-106 -599q-1 -5 -1.5 -11.5t-0.5 -13.5q0 -28 16 -39.5t42 -11.5zM257 68 q28 0 55 13.5t49.5 39t39 61.5t24.5 80l18 103q-20 42 -54 65.5t-75 23.5q-35 0 -67.5 -16t-57.5 -46.5t-40 -74.5t-15 -99q0 -37 10.5 -65t27.5 -47t39 -28.5t46 -9.5z" />
<glyph unicode="e" horiz-adv-x="518" d="M261 -12q-50 0 -91 16.5t-70.5 47t-46 74.5t-16.5 99q0 62 20 118t56.5 98t88.5 66.5t116 24.5q43 0 77 -13t57.5 -34t36 -49t12.5 -58q0 -56 -26.5 -91t-66.5 -55.5t-88 -28t-91 -7.5q-27 0 -53.5 2.5t-46.5 5.5q8 -66 46.5 -101t100.5 -35q50 0 89 13t66 26l8 -80 q-30 -14 -75.5 -26.5t-102.5 -12.5zM311 456q-35 0 -65.5 -13.5t-54 -37.5t-39 -57t-21.5 -72q23 -5 46 -7t52 -2q85 0 133.5 23.5t48.5 80.5q0 35 -27.5 60t-72.5 25z" />
<glyph unicode="f" horiz-adv-x="372" d="M243 501h154l-14 -78h-154l-88 -495q-8 -44 -23 -74.5t-36 -49.5t-48 -27.5t-58 -8.5q-33 0 -60.5 9t-48.5 25l36 74q14 -14 32.5 -22t41.5 -8q27 0 46.5 19t27.5 61l88 497h-80l14 78h80l15 80q17 92 65 131.5t123 39.5q41 0 76 -10.5t63 -25.5l-35 -76q-23 12 -47.5 22 t-57.5 10q-37 0 -63 -21.5t-34 -66.5z" />
<glyph unicode="g" horiz-adv-x="577" d="M367 532q60 0 104.5 -12t73.5 -24l-87 -502q-12 -69 -37 -112.5t-57 -69t-68 -35t-71 -9.5q-68 0 -115.5 27.5t-77.5 65.5l70 52q49 -67 129 -67q50 0 88 37t54 126l17 98q-29 -45 -70 -76t-93 -31q-36 0 -70 13.5t-61 39.5t-43 65t-16 89q0 72 25 132t69 103t104.5 66.5 t131.5 23.5zM129 217q0 -34 10.5 -59.5t27.5 -43t39 -26t45 -8.5q28 0 54.5 15.5t49 44t39.5 68.5t26 90l26 145q-19 6 -40 9.5t-49 3.5q-50 0 -92 -18.5t-72 -50.5t-47 -75.5t-17 -94.5z" />
<glyph unicode="h" horiz-adv-x="589" d="M446 368q0 38 -22.5 61.5t-58.5 23.5q-27 0 -57.5 -14t-59 -43.5t-51 -74.5t-33.5 -108l-37 -213h-90l130 740h90l-58 -329q31 55 81 88t107 33q34 0 62 -11t47.5 -30.5t30 -45.5t10.5 -56q0 -26 -6 -63l-57 -326h-90l55 311q5 24 6 35t1 22z" />
<glyph unicode="i" horiz-adv-x="255" d="M127 0h-90l91 520h90zM194 609q-28 0 -42.5 16.5t-14.5 38.5q0 32 20 51.5t50 19.5q28 0 42.5 -16.5t14.5 -38.5q0 -32 -20 -51.5t-50 -19.5z" />
<glyph unicode="j" horiz-adv-x="264" d="M136 520h90l-104 -592q-8 -44 -23 -74.5t-36.5 -49.5t-48.5 -27.5t-58 -8.5q-33 0 -60.5 9t-48.5 25l36 74q14 -14 32.5 -22t41.5 -8q27 0 46.5 19t27.5 61zM202 609q-28 0 -42.5 16.5t-14.5 38.5q0 32 20 51.5t50 19.5q28 0 42.5 -16.5t14.5 -38.5q0 -32 -20 -51.5 t-50 -19.5z" />
<glyph unicode="k" horiz-adv-x="543" d="M167 740h90l-54 -307q27 46 71 72.5t99 26.5q32 0 59.5 -10.5t47 -28.5t30.5 -42.5t11 -52.5q0 -40 -14 -69t-39.5 -48t-60 -28t-75.5 -9h-10q-5 0 -12 1l85 -130q17 -26 38.5 -38t58.5 -12l-31 -70q-47 0 -78.5 13.5t-56.5 56.5l-123 212l9 29q15 -7 38 -11.5t52 -4.5 q66 0 99 27t33 71q0 31 -22.5 52.5t-60.5 21.5q-21 0 -47.5 -9.5t-52.5 -32.5t-47.5 -62t-31.5 -99l-45 -259h-90z" />
<glyph unicode="l" horiz-adv-x="328" d="M146 180q-2 -14 -3 -24t-1 -18q0 -35 20 -53.5t55 -18.5q17 0 34 4t31 11l9 -73q-18 -9 -42 -14.5t-52 -5.5q-30 0 -56.5 8.5t-46 25.5t-31 43.5t-11.5 61.5q0 14 1 25.5t3 25.5l98 562h90z" />
<glyph unicode="m" horiz-adv-x="913" d="M690 453q-25 0 -54 -14t-55.5 -43t-48 -74t-32.5 -107l-38 -215h-90l57 311q5 24 6 35t1 22q0 39 -22.5 62t-58.5 23q-26 0 -55 -14.5t-56 -44.5t-48.5 -76.5t-32.5 -110.5l-36 -207h-90l91 520h87l-22 -120q30 60 81 96t107 36q31 0 56 -10t43.5 -27.5t29.5 -42 t14 -52.5q34 63 83.5 97.5t107.5 34.5q33 0 60 -11t46 -30.5t29.5 -45.5t10.5 -56q0 -26 -6 -63l-58 -326h-90l57 311q5 24 6 35t1 22q0 39 -22.5 62t-58.5 23z" />
<glyph unicode="n" horiz-adv-x="589" d="M364 453q-26 0 -56.5 -14.5t-59 -44.5t-51.5 -76.5t-34 -110.5l-36 -207h-90l91 520h87l-22 -120q31 60 83 96t111 36q34 0 62 -11t47.5 -30.5t30 -45.5t10.5 -56q0 -26 -6 -63l-57 -326h-90l55 311q5 24 6 35t1 22q0 39 -22.5 62t-59.5 23z" />
<glyph unicode="o" horiz-adv-x="601" d="M281 68q45 0 80 17t60 47t38 70t13 87q0 34 -10.5 64t-30 52t-47.5 34.5t-64 12.5q-44 0 -79.5 -17t-60.5 -47t-38 -70.5t-13 -86.5q0 -34 10 -64t29.5 -52t48 -34.5t64.5 -12.5zM278 -12q-56 0 -100.5 17.5t-75.5 48.5t-48 74.5t-17 94.5q0 65 20 121.5t57.5 98 t90.5 65.5t118 24q55 0 100 -17.5t76 -48.5t48 -74.5t17 -94.5q0 -65 -20 -121.5t-57.5 -98t-90.5 -65.5t-118 -24z" />
<glyph unicode="p" horiz-adv-x="602" d="M97 520q104 0 104 -90v-21q29 54 74.5 88.5t107.5 34.5q40 0 73 -16t56 -44.5t35.5 -68t12.5 -87.5q0 -74 -22 -134.5t-58 -103.5t-82.5 -66.5t-95.5 -23.5q-48 0 -89.5 24t-64.5 59l-51 -291h-90l104 595q3 16 3 28q0 47 -49 47zM294 68q35 0 66.5 17.5t55.5 49t38 75.5 t14 97q0 69 -31 108t-81 39q-30 0 -58.5 -14.5t-51.5 -40.5t-40.5 -63.5t-25.5 -82.5l-18 -101q22 -41 56.5 -62.5t75.5 -21.5z" />
<glyph unicode="q" horiz-adv-x="577" d="M227 -12q-38 0 -72 15t-60.5 43t-42 68.5t-15.5 90.5q0 72 25 132.5t69 103.5t104.5 67t132.5 24q60 0 104 -12t73 -24l-126 -716h-90l54 308q-28 -43 -66.5 -71.5t-89.5 -28.5zM250 68q28 0 54 14.5t48 40.5t38 62.5t24 81.5l31 176q-18 6 -38.5 9.5t-48.5 3.5 q-52 0 -94.5 -18t-72.5 -50t-46 -76t-16 -96q0 -36 10 -63.5t27 -46.5t39 -28.5t45 -9.5z" />
<glyph unicode="r" horiz-adv-x="405" d="M118 374q1 5 1.5 11.5t0.5 13.5q0 28 -16 39.5t-42 11.5l31 70q54 0 82 -25t28 -76v-20q29 72 74.5 102.5t103.5 30.5q23 0 39.5 -3.5t27.5 -8.5l-40 -88q-12 5 -25 7t-30 2q-27 0 -54 -13.5t-51 -45.5t-44 -84t-33 -129l-29 -169h-90z" />
<glyph unicode="s" horiz-adv-x="444" d="M401 407q-29 20 -64.5 35t-80.5 15q-48 0 -73.5 -16t-25.5 -42q0 -12 4.5 -22t16 -20.5t31.5 -22.5t51 -28q69 -35 101.5 -70.5t32.5 -89.5q0 -40 -16 -69.5t-44.5 -49t-66.5 -29.5t-82 -10q-61 0 -107.5 15.5t-80.5 40.5l51 74q27 -22 63.5 -37t81.5 -15q51 0 79.5 19 t28.5 47q0 13 -4.5 24.5t-16.5 23.5t-32.5 24.5t-51.5 28.5q-38 19 -62.5 36.5t-39 36.5t-20.5 40.5t-6 47.5q0 30 14 55.5t39 43.5t60 28.5t77 10.5q56 0 100.5 -14.5t78.5 -34.5z" />
<glyph unicode="t" horiz-adv-x="391" d="M55 501h92l48 164h69l-29 -164h144l-13 -78h-145l-42 -243q-4 -20 -4 -38q0 -35 20.5 -54.5t55.5 -19.5q29 0 48.5 8.5t36.5 17.5l11 -78q-19 -11 -47.5 -19.5t-63.5 -8.5q-28 0 -55 8.5t-48 26t-34 45.5t-13 67q0 11 1 22.5t3 26.5l41 239h-89z" />
<glyph unicode="u" horiz-adv-x="579" d="M194 -12q-30 0 -56.5 10t-47 29t-32 46t-11.5 61q0 13 1 26.5t3 28.5l57 331h90l-58 -329q-2 -10 -2.5 -17.5t-0.5 -16.5q0 -45 26 -67t61 -22q28 0 56.5 13.5t52.5 38.5t42.5 61.5t26.5 83.5l45 255h90l-66 -379q-1 -5 -1.5 -11.5t-0.5 -13.5q0 -28 16 -39.5t42 -11.5 l-31 -70q-54 0 -82.5 26t-28.5 83v9q-73 -125 -191 -125z" />
<glyph unicode="v" horiz-adv-x="509" d="M37 508l85 22l103 -430l249 430l73 -43l-292 -487h-93z" />
<glyph unicode="w" horiz-adv-x="790" d="M130 0l-78 513l87 12l59 -425l189 383h95l52 -383l210 425l74 -38l-249 -487h-99l-52 382l-189 -382h-99z" />
<glyph unicode="x" horiz-adv-x="495" d="M196 269l-152 204l78 58l132 -206l182 200l62 -58l-199 -203l160 -218l-75 -55l-142 216l-201 -213l-59 57z" />
<glyph unicode="y" horiz-adv-x="561" d="M225 80q28 0 56 13.5t52.5 39.5t42.5 64t27 87l41 236h90l-91 -526q-12 -69 -37 -112.5t-57 -69t-68 -35t-71 -9.5q-68 0 -115.5 27.5t-77.5 65.5l70 52q49 -67 129 -67q50 0 88 37t54 126l19 106q-30 -48 -76 -81.5t-106 -33.5q-30 0 -56 10t-46 29t-31.5 46t-11.5 61 q0 11 1 25t3 30l54 319h90l-55 -317q-3 -18 -3 -34q0 -45 25 -67t60 -22z" />
<glyph unicode="z" horiz-adv-x="476" d="M88 520h386l-12 -69l-336 -371h288l-15 -80h-402l13 71l333 371h-268z" />
<glyph unicode="{" horiz-adv-x="450" d="M164 320q44 -12 66 -38t22 -74q0 -42 -8.5 -82.5t-8.5 -86.5q0 -48 19 -68.5t60 -31.5l-10 -57q-69 11 -111 46t-42 109q0 43 6.5 81.5t6.5 83.5q0 42 -17.5 61t-56.5 25l11 64q25 6 44.5 15t34 27t26 48t20.5 80q12 62 29.5 104t44.5 69t65.5 41.5t92.5 21.5l-10 -57 q-28 -7 -49 -18t-37 -30.5t-27 -50t-18 -76.5q-9 -57 -21.5 -93t-30 -58t-42.5 -34t-59 -21z" />
<glyph unicode="|" horiz-adv-x="300" d="M45 -100l152 870h78l-152 -870h-78z" />
<glyph unicode="}" horiz-adv-x="450" d="M363 288q-26 -6 -45 -15t-34 -27t-26.5 -48.5t-20.5 -79.5q-12 -62 -29.5 -104t-44.5 -69t-65 -41.5t-92 -21.5l10 57q28 7 49 18t36.5 30.5t26.5 49.5t19 77q9 57 21.5 93t30 58t42 34t59.5 21q-44 12 -66 38t-22 74q0 42 8.5 82.5t8.5 86.5q0 48 -19 68.5t-60 31.5 l10 57q69 -11 111 -46t42 -109q0 -43 -6.5 -81.5t-6.5 -83.5q0 -42 17.5 -61t56.5 -25z" />
<glyph unicode="~" d="M524 322q-9 -9 -23.5 -20.5t-32.5 -22.5t-39.5 -18.5t-44.5 -7.5q-27 0 -50 9t-44 19.5t-42 19.5t-44 9q-30 0 -56.5 -15.5t-47.5 -32.5l-24 66q26 22 58.5 42t70.5 20q27 0 49.5 -9t44 -19.5t42.5 -19.5t44 -9q19 0 36 6t31 14.5t26 18t21 16.5z" />
<glyph unicode="&#xa1;" horiz-adv-x="317" d="M127 -220h-100l47 261l61 273h74l-35 -273zM191 398q-29 0 -45.5 17t-16.5 40q0 37 22.5 57t51.5 20t45.5 -17t16.5 -40q0 -37 -22.5 -57t-51.5 -20z" />
<glyph unicode="&#xa2;" horiz-adv-x="450" d="M429 444q-26 16 -54.5 26.5t-63.5 10.5q-42 0 -76 -17t-58 -46.5t-37 -69.5t-13 -86q0 -76 38 -120.5t104 -44.5q38 0 67 9t53 21l11 -79q-23 -12 -56.5 -20.5t-77.5 -10.5l-11 -112h-88l30 118q-74 18 -118 77.5t-44 149.5q0 59 17.5 113t50.5 96t80.5 68.5t106.5 32.5 l11 106h88l-27 -108q31 -5 56.5 -14.5t47.5 -22.5z" />
<glyph unicode="&#xa3;" d="M478 0h-427l13 73q25 28 43.5 53.5t32 53.5t23.5 62t19 79h-76l14 76h76l24 137q9 48 27.5 82t44.5 55.5t59 31t70 9.5q49 0 84.5 -14t63.5 -30l-41 -70q-23 14 -49 26t-57 12q-42 0 -73.5 -25t-42.5 -86l-24 -128h168l-14 -76h-169q-9 -45 -20 -79.5t-24 -63 t-28.5 -51.5t-34.5 -44h332z" />
<glyph unicode="&#xa4;" d="M326 532q22 0 42.5 -5.5t39.5 -14.5l69 74l61 -55l-72 -68q16 -21 25 -47.5t9 -55.5q0 -46 -16.5 -84.5t-45.5 -67.5l48 -68l-69 -50l-43 73q-44 -19 -91 -19q-50 0 -90 23l-71 -77l-61 55l76 72q-31 43 -31 99q0 46 16.5 84.5t45.5 67.5l-47 68l69 50l42 -74 q45 20 94 20zM315 460q-30 0 -53 -11t-39.5 -30t-25 -44t-8.5 -52q0 -47 29.5 -77t74.5 -30q30 0 53 11t38.5 30t24 44t8.5 52q0 47 -28.5 77t-73.5 30z" />
<glyph unicode="&#xa5;" d="M98 339h118l-151 328l84 38l155 -354l272 354l73 -49l-257 -317h116l-13 -73h-157l-12 -67h157l-13 -73h-157l-22 -126h-95l22 126h-158l13 73h158l12 67h-158z" />
<glyph unicode="&#xa6;" horiz-adv-x="300" d="M107 257h78l-62 -357h-78zM197 770h78l-61 -348h-78z" />
<glyph unicode="&#xa7;" d="M291 227q55 14 90.5 43.5t35.5 73.5q0 29 -19.5 53.5t-64.5 42.5q-24 -5 -47.5 -15.5t-42 -25t-29.5 -33.5t-11 -41q0 -29 20.5 -54t67.5 -44zM109 39q26 -17 56.5 -28t71.5 -11q51 0 77.5 17.5t26.5 47.5q0 25 -20 47t-75 51q-34 18 -58.5 34.5t-40 34.5t-22.5 38t-7 45 q0 62 42 100.5t110 59.5q-42 26 -61 53.5t-19 66.5q0 33 15.5 58.5t42 43t62 27t76.5 9.5q45 0 79 -9t63 -23l-39 -65q-23 13 -48 21t-60 8q-22 0 -41.5 -4.5t-34 -13.5t-23 -21.5t-8.5 -28.5q0 -12 5.5 -23t18.5 -22.5t34.5 -25t53.5 -29.5q62 -32 89 -65.5t27 -78.5 q0 -66 -40 -103t-113 -60q41 -23 60.5 -51.5t19.5 -66.5t-16.5 -65t-44 -44.5t-62.5 -26t-72 -8.5q-50 0 -89 10t-73 31z" />
<glyph unicode="&#xa8;" horiz-adv-x="380" d="M94 607q-26 0 -40 16t-14 36q0 30 19 49t48 19q26 0 40 -16t14 -36q0 -30 -19 -49t-48 -19zM273 607q-26 0 -40 16t-14 36q0 30 19 49t48 19q26 0 40 -16t14 -36q0 -30 -19 -49t-48 -19z" />
<glyph unicode="&#xa9;" horiz-adv-x="750" d="M422 501q-30 0 -55.5 -13.5t-44 -37.5t-29.5 -57.5t-11 -73.5q0 -57 27.5 -86.5t70.5 -29.5q24 0 48.5 8.5t51.5 24.5l14 -79q-26 -14 -57 -22.5t-66 -8.5q-80 0 -127.5 48.5t-47.5 139.5q0 56 17 104t47 83.5t72 56t93 20.5q37 0 67 -10.5t56 -27.5l-37 -70 q-17 12 -39 21.5t-50 9.5zM357 51q69 0 125 26t95.5 72.5t60.5 110.5t21 139q0 54 -17 100t-49 79.5t-77.5 52t-102.5 18.5q-71 0 -127.5 -26t-96.5 -72.5t-61.5 -110t-21.5 -139.5q0 -55 17 -101t49.5 -79t79 -51.5t105.5 -18.5zM349 -12q-75 0 -134 23t-99.5 64t-62 98.5 t-21.5 126.5q0 84 26 159t75 131.5t120.5 89t162.5 32.5q76 0 135 -23t99.5 -64.5t61.5 -98.5t21 -126q0 -84 -25.5 -158.5t-74.5 -131t-120.5 -89.5t-163.5 -33z" />
<glyph unicode="&#xaa;" d="M111 132l15 82h340l-15 -82h-340zM123 472q0 53 18.5 96.5t52.5 74t80.5 47.5t103.5 17q45 0 79 -7t62 -17l-47 -231q-3 -14 -3 -25q0 -37 44 -37l-29 -64q-42 0 -66.5 20.5t-24.5 59.5q-23 -38 -54.5 -60.5t-76.5 -22.5q-25 0 -50 10t-44.5 28.5t-32 46.5t-12.5 64z M287 396q16 0 33 7t32.5 23.5t27.5 43t20 65.5l19 97q-10 2 -21 3.5t-27 1.5q-35 0 -64.5 -11.5t-50.5 -32t-33 -49t-12 -62.5q0 -42 22.5 -64t53.5 -22z" />
<glyph unicode="&#xab;" horiz-adv-x="569" d="M194 129l-124 194l7 42l187 194l55 -49l-174 -171l113 -161zM394 129l-124 194l7 42l187 194l55 -49l-174 -171l113 -161z" />
<glyph unicode="&#xac;" d="M498 120h-91l32 180h-379l15 83h470z" />
<glyph unicode="&#xad;" d="M127 302l15 82h340l-15 -82h-340z" />
<glyph unicode="&#xae;" horiz-adv-x="750" d="M349 -12q-75 0 -134 23t-99.5 64t-62 98.5t-21.5 126.5q0 84 26 159t75 131.5t120.5 89t162.5 32.5q76 0 135 -23t99.5 -64.5t61.5 -98.5t21 -126q0 -84 -25.5 -158.5t-74.5 -131t-120.5 -89.5t-163.5 -33zM357 51q69 0 125 26t95.5 72.5t60.5 110.5t21 139q0 54 -17 100 t-49 79.5t-77.5 52t-102.5 18.5q-71 0 -127.5 -26t-96.5 -72.5t-61.5 -110t-21.5 -139.5q0 -55 17 -101t49.5 -79t79 -51.5t105.5 -18.5zM522 139q-33 0 -51 12.5t-29 32t-18.5 42t-19 42.5t-31 34t-53.5 16l-31 -175h-80l75 420q29 5 53.5 7.5t57.5 2.5q36 0 63 -9 t45.5 -24.5t28 -36.5t9.5 -44q0 -51 -31 -78t-84 -35q23 -12 35 -26t19 -29t11.5 -29.5t11 -25.5t18 -18t33.5 -7zM393 502q-22 0 -41 -3l-20 -111h34q45 0 71 17.5t26 46.5q0 22 -18 36t-52 14z" />
<glyph unicode="&#xaf;" horiz-adv-x="403" d="M50 627l13 73h290l-13 -73h-290z" />
<glyph unicode="&#xb0;" horiz-adv-x="450" d="M208 458q-30 0 -55 10t-42.5 27t-27 40t-9.5 49q0 36 13 64.5t34.5 49t50 31.5t60.5 11q30 0 55 -10t42.5 -27t27 -40t9.5 -49q0 -36 -13 -64.5t-34.5 -49t-50.5 -31.5t-60 -11zM215 532q27 0 49 20t22 55q0 23 -16.5 41t-45.5 18q-27 0 -48.5 -20t-21.5 -55 q0 -23 16 -41t45 -18z" />
<glyph unicode="&#xb1;" d="M365 394l-24 -135h-85l24 135h-128l13 78h128l24 136h85l-24 -136h127l-13 -78h-127zM96 81l15 82h340l-15 -82h-340z" />
<glyph unicode="&#xb2;" horiz-adv-x="450" d="M426 597q0 -35 -16.5 -60t-41.5 -44t-55 -34.5t-57.5 -32t-49 -36.5t-29.5 -47h212l-13 -67h-288q-3 15 -3 32q0 45 19 77t47.5 56t62 42t62 34.5t47.5 34.5t19 42q0 21 -17.5 34.5t-42.5 13.5q-50 0 -101 -40l-37 56q32 22 66.5 35.5t79.5 13.5q61 0 98.5 -31.5 t37.5 -78.5z" />
<glyph unicode="&#xb3;" horiz-adv-x="450" d="M216 270q-40 0 -77.5 10.5t-66.5 30.5l48 56q20 -14 45 -22.5t54 -8.5q43 0 69 16.5t26 50.5q0 28 -29 46t-84 18h-42l11 60h31q60 0 98 17.5t38 50.5q0 21 -18.5 34.5t-49.5 13.5q-30 0 -52.5 -9t-42.5 -21l-34 54q28 17 62.5 28.5t74.5 11.5q33 0 59 -8.5t44 -23 t28 -33.5t10 -39q0 -41 -23.5 -65.5t-67.5 -40.5q34 -16 52 -39t18 -55q0 -61 -47 -97t-134 -36z" />
<glyph unicode="&#xb4;" horiz-adv-x="309" d="M40 630l177 130l52 -76l-193 -109z" />
<glyph unicode="&#xb5;" d="M141 520h83l-58 -329q-3 -18 -3 -35q0 -42 25.5 -65t61.5 -23q28 0 56.5 13.5t52.5 39.5t42.5 63.5t27.5 84.5l45 251h86l-92 -520h-83l17 96q-30 -46 -73 -77t-99 -31q-35 0 -59 16.5t-35 40.5l-48 -265h-78z" />
<glyph unicode="&#xb6;" horiz-adv-x="750" d="M436 -64l145 824h78l-145 -824h-78zM374 -64h-78l82 465q-16 -2 -33 -3t-34 -1q-103 0 -162 46t-59 131q0 44 18.5 81.5t52.5 65t82 43t108 15.5q55 0 93 -4.5t76 -10.5zM429 695q-19 3 -39.5 5t-43.5 2q-79 0 -122.5 -35.5t-43.5 -89.5q0 -45 35 -74t102 -29 q24 0 41.5 1t33.5 5z" />
<glyph unicode="&#xb7;" horiz-adv-x="300" d="M154 288q-29 0 -45.5 17t-16.5 40q0 37 22.5 57t51.5 20t45.5 -17t16.5 -40q0 -37 -22.5 -57t-51.5 -20z" />
<glyph unicode="&#xb8;" horiz-adv-x="312" d="M282 -140q0 -26 -11.5 -45t-31 -32.5t-46 -20t-56.5 -6.5q-35 0 -60.5 6t-46.5 17l35 63q16 -9 33 -14.5t39 -5.5q30 0 46.5 10t16.5 29q0 18 -23.5 31t-83.5 13l52 95h74l-31 -59q42 0 68 -22.5t26 -58.5z" />
<glyph unicode="&#xb9;" horiz-adv-x="450" d="M219 341l52 261l-86 -54l-39 60l168 92h59l-74 -359h81l-14 -65h-256l12 65h97z" />
<glyph unicode="&#xba;" horiz-adv-x="610" d="M356 707q42 0 76.5 -12.5t59 -34.5t38 -52.5t13.5 -67.5q0 -46 -15.5 -86t-44.5 -69t-69.5 -46t-91.5 -17q-42 0 -76.5 12.5t-59 34.5t-38 52.5t-13.5 67.5q0 46 15.5 86t44.5 69t69.5 46t91.5 17zM117 132l15 82h340l-15 -82h-340zM352 634q-30 0 -54.5 -11t-41.5 -29.5 t-26 -44t-9 -54.5q0 -42 28 -71t77 -29q30 0 54.5 10.5t41.5 29.5t26 44.5t9 54.5q0 42 -28 71t-77 29z" />
<glyph unicode="&#xbb;" horiz-adv-x="569" d="M195 559l124 -194l-7 -42l-187 -194l-55 49l174 171l-113 161zM395 559l124 -194l-7 -42l-187 -194l-55 49l174 171l-113 161z" />
<glyph unicode="&#xbc;" horiz-adv-x="900" d="M169 1l563 739l55 -40l-563 -739zM699 87h-204l9 52l197 291l68 -26l-170 -251h112l20 114h77l-20 -114h57l-12 -66h-57l-15 -87h-77zM164 341l52 261l-86 -54l-39 60l168 92h59l-74 -359h81l-14 -65h-256l12 65h97z" />
<glyph unicode="&#xbd;" horiz-adv-x="900" d="M150 1l563 739l55 -40l-563 -739zM143 341l52 261l-86 -54l-39 60l168 92h59l-74 -359h81l-14 -65h-256l12 65h97zM866 321q0 -35 -16.5 -60t-41.5 -44t-55 -34.5t-57.5 -32t-49 -36.5t-29.5 -47h212l-13 -67h-288q-3 15 -3 32q0 45 19 77t47.5 56t62 42t62 34.5 t47.5 34.5t19 42q0 21 -17.5 34.5t-42.5 13.5q-50 0 -101 -40l-37 56q32 22 66.5 35.5t79.5 13.5q61 0 98.5 -31.5t37.5 -78.5z" />
<glyph unicode="&#xbe;" horiz-adv-x="900" d="M185 1l563 739l55 -40l-563 -739zM707 87h-204l9 52l197 291l68 -26l-170 -251h112l20 114h77l-20 -114h57l-12 -66h-57l-15 -87h-77zM191 270q-40 0 -77.5 10.5t-66.5 30.5l48 56q20 -14 45 -22.5t54 -8.5q43 0 69 16.5t26 50.5q0 28 -29 46t-84 18h-42l11 60h31 q60 0 98 17.5t38 50.5q0 21 -18.5 34.5t-49.5 13.5q-30 0 -52.5 -9t-42.5 -21l-34 54q28 17 62.5 28.5t74.5 11.5q33 0 59 -8.5t44 -23t28 -33.5t10 -39q0 -41 -23.5 -65.5t-67.5 -40.5q34 -16 52 -39t18 -55q0 -61 -47 -97t-134 -36z" />
<glyph unicode="&#xbf;" horiz-adv-x="498" d="M100 -64q0 -37 27.5 -61.5t72.5 -24.5q44 0 81.5 24t69.5 63l60 -60q-44 -50 -97 -79.5t-127 -29.5q-40 0 -74 12t-58.5 33.5t-38.5 51t-14 63.5q0 44 17.5 75t44.5 54.5t59 43t60.5 41t50 47t26.5 62.5l9 62h73q2 -12 3 -26.5t1 -28.5q0 -51 -18 -86t-45.5 -60.5 t-59.5 -44.5t-59.5 -38t-45.5 -40.5t-18 -52.5zM307 398q-29 0 -45.5 17t-16.5 40q0 37 22.5 57t51.5 20t45.5 -17t16.5 -40q0 -37 -22.5 -57t-51.5 -20z" />
<glyph unicode="&#xc0;" horiz-adv-x="663" d="M-28 37l384 663h107l153 -689l-91 -21l-42 200h-324l-111 -198zM204 270h262l-71 337zM513 734l-193 110l52 76l177 -130z" />
<glyph unicode="&#xc1;" horiz-adv-x="663" d="M-28 37l384 663h107l153 -689l-91 -21l-42 200h-324l-111 -198zM204 270h262l-71 337zM320 790l177 130l52 -76l-193 -110z" />
<glyph unicode="&#xc2;" horiz-adv-x="663" d="M-28 37l384 663h107l153 -689l-91 -21l-42 200h-324l-111 -198zM204 270h262l-71 337zM285 742l-34 75l162 83h64l132 -96l-56 -62l-118 95z" />
<glyph unicode="&#xc3;" horiz-adv-x="663" d="M-28 37l384 663h107l153 -689l-91 -21l-42 200h-324l-111 -198zM204 270h262l-71 337zM586 806q-21 -18 -44.5 -32.5t-54.5 -14.5q-20 0 -34.5 5.5t-27.5 12t-26 12t-30 5.5q-23 0 -42.5 -10.5t-37.5 -25.5l-24 62q23 22 52.5 37t58.5 15q19 0 33.5 -5.5t27 -11.5 t25.5 -11.5t31 -5.5q20 0 37 9.5t32 21.5z" />
<glyph unicode="&#xc4;" horiz-adv-x="663" d="M-28 37l384 663h107l153 -689l-91 -21l-42 200h-324l-111 -198zM204 270h262l-71 337zM335 760q-26 0 -40 16t-14 36q0 30 19 49t48 19q26 0 40 -16t14 -36q0 -30 -19 -49t-48 -19zM514 760q-26 0 -40 16t-14 36q0 30 19 49t48 19q26 0 40 -16t14 -36q0 -30 -19 -49 t-48 -19z" />
<glyph unicode="&#xc5;" horiz-adv-x="663" d="M-28 37l361 624q-38 28 -38 81q0 29 10 54t28 43t43.5 28.5t57.5 10.5q50 0 82 -28t32 -76q0 -42 -20 -74t-55 -49l143 -640l-91 -21l-42 200h-324l-111 -198zM204 270h262l-71 337zM415 700q25 0 40 19t15 46q0 23 -11 37t-31 14q-25 0 -40 -19t-15 -46q0 -22 10 -35.5 t28 -15.5h4z" />
<glyph unicode="&#xc6;" horiz-adv-x="872" d="M-38 42l483 658h465l-14 -82h-310l-38 -213h265l-14 -80h-265l-43 -243h310l-14 -82h-402l33 190h-239l-145 -199zM237 270h195l62 353z" />
<glyph unicode="&#xc7;" horiz-adv-x="560" d="M399 -140q0 -26 -11.5 -45t-31 -32.5t-46 -20t-56.5 -6.5q-35 0 -60.5 6t-46.5 17l35 63q16 -9 33 -14.5t39 -5.5q30 0 46.5 10t16.5 29q0 18 -23.5 31t-83.5 13l48 89q-97 17 -154 92.5t-57 199.5q0 90 27 168t75.5 135t116 90t148.5 33q60 0 104.5 -16t74.5 -33 l-43 -78q-30 19 -63 31.5t-81 12.5q-55 0 -102.5 -25t-83 -70t-55.5 -106.5t-20 -134.5q0 -54 14 -95.5t39 -69.5t59.5 -42.5t75.5 -14.5q47 0 83.5 13t71.5 31l16 -86q-35 -17 -78 -28t-97 -13l-24 -47q42 0 68 -22.5t26 -58.5z" />
<glyph unicode="&#xc8;" horiz-adv-x="542" d="M165 700h415l-14 -82h-321l-37 -213h275l-14 -80h-275l-43 -243h320l-14 -82h-415zM459 734l-193 110l52 76l177 -130z" />
<glyph unicode="&#xc9;" horiz-adv-x="542" d="M165 700h415l-14 -82h-321l-37 -213h275l-14 -80h-275l-43 -243h320l-14 -82h-415zM288 790l177 130l52 -76l-193 -110z" />
<glyph unicode="&#xca;" horiz-adv-x="542" d="M165 700h415l-14 -82h-321l-37 -213h275l-14 -80h-275l-43 -243h320l-14 -82h-415zM246 742l-34 75l162 83h64l132 -96l-56 -62l-118 95z" />
<glyph unicode="&#xcb;" horiz-adv-x="542" d="M165 700h415l-14 -82h-321l-37 -213h275l-14 -80h-275l-43 -243h320l-14 -82h-415zM292 760q-26 0 -40 16t-14 36q0 30 19 49t48 19q26 0 40 -16t14 -36q0 -30 -19 -49t-48 -19zM471 760q-26 0 -40 16t-14 36q0 30 19 49t48 19q26 0 40 -16t14 -36q0 -30 -19 -49t-48 -19 z" />
<glyph unicode="&#xcc;" horiz-adv-x="272" d="M42 0l123 700h95l-123 -700h-95zM315 734l-193 110l52 76l177 -130z" />
<glyph unicode="&#xcd;" horiz-adv-x="272" d="M42 0l123 700h95l-123 -700h-95zM120 790l177 130l52 -76l-193 -110z" />
<glyph unicode="&#xce;" horiz-adv-x="272" d="M42 0l123 700h95l-123 -700h-95zM89 742l-34 75l162 83h64l132 -96l-56 -62l-118 95z" />
<glyph unicode="&#xcf;" horiz-adv-x="272" d="M42 0l123 700h95l-123 -700h-95zM137 760q-26 0 -40 16t-14 36q0 30 19 49t48 19q26 0 40 -16t14 -36q0 -30 -19 -49t-48 -19zM316 760q-26 0 -40 16t-14 36q0 30 19 49t48 19q26 0 40 -16t14 -36q0 -30 -19 -49t-48 -19z" />
<glyph unicode="&#xd0;" horiz-adv-x="683" d="M26 384h99l54 308q41 9 82 14.5t101 5.5q79 0 136 -25.5t93 -68.5t53 -98.5t17 -116.5q0 -90 -27.5 -166.5t-78.5 -131.5t-124 -86t-164 -31q-64 0 -114 8.5t-91 23.5l49 284h-99zM354 632q-26 0 -49 -2.5t-43 -7.5l-42 -238h149l-15 -80h-148l-38 -221q23 -6 49 -9.5 t56 -3.5q65 0 118.5 23.5t91.5 66.5t59 103t21 132q0 47 -12.5 90t-38 75.5t-65 52t-93.5 19.5z" />
<glyph unicode="&#xd1;" horiz-adv-x="702" d="M234 584l-102 -584h-90l123 700h126l205 -588l104 588h90l-123 -700h-124zM611 806q-21 -18 -44.5 -32.5t-54.5 -14.5q-20 0 -34.5 5.5t-27.5 12t-26 12t-30 5.5q-23 0 -42.5 -10.5t-37.5 -25.5l-24 62q23 22 52.5 37t58.5 15q19 0 33.5 -5.5t27 -11.5t25.5 -11.5 t31 -5.5q20 0 37 9.5t32 21.5z" />
<glyph unicode="&#xd2;" horiz-adv-x="738" d="M416 630q-64 0 -114.5 -27.5t-85.5 -73.5t-53.5 -105.5t-18.5 -122.5q0 -48 13 -90t38.5 -73.5t63.5 -49.5t88 -18q64 0 114.5 27.5t85.5 73.5t53.5 105.5t18.5 122.5q0 48 -13 90t-38.5 73.5t-63.5 49.5t-88 18zM339 -12q-71 0 -125 24t-91.5 65t-56.5 97t-19 121 q0 80 25.5 155t73.5 133.5t118 93.5t160 35q70 0 124.5 -24t92 -65t56.5 -97.5t19 -120.5q0 -80 -25.5 -155t-73.5 -133.5t-118 -93.5t-160 -35zM498 734l-193 110l52 76l177 -130z" />
<glyph unicode="&#xd3;" horiz-adv-x="738" d="M416 630q-64 0 -114.5 -27.5t-85.5 -73.5t-53.5 -105.5t-18.5 -122.5q0 -48 13 -90t38.5 -73.5t63.5 -49.5t88 -18q64 0 114.5 27.5t85.5 73.5t53.5 105.5t18.5 122.5q0 48 -13 90t-38.5 73.5t-63.5 49.5t-88 18zM339 -12q-71 0 -125 24t-91.5 65t-56.5 97t-19 121 q0 80 25.5 155t73.5 133.5t118 93.5t160 35q70 0 124.5 -24t92 -65t56.5 -97.5t19 -120.5q0 -80 -25.5 -155t-73.5 -133.5t-118 -93.5t-160 -35zM331 790l177 130l52 -76l-193 -110z" />
<glyph unicode="&#xd4;" horiz-adv-x="738" d="M416 630q-64 0 -114.5 -27.5t-85.5 -73.5t-53.5 -105.5t-18.5 -122.5q0 -48 13 -90t38.5 -73.5t63.5 -49.5t88 -18q64 0 114.5 27.5t85.5 73.5t53.5 105.5t18.5 122.5q0 48 -13 90t-38.5 73.5t-63.5 49.5t-88 18zM339 -12q-71 0 -125 24t-91.5 65t-56.5 97t-19 121 q0 80 25.5 155t73.5 133.5t118 93.5t160 35q70 0 124.5 -24t92 -65t56.5 -97.5t19 -120.5q0 -80 -25.5 -155t-73.5 -133.5t-118 -93.5t-160 -35zM288 742l-34 75l162 83h64l132 -96l-56 -62l-118 95z" />
<glyph unicode="&#xd5;" horiz-adv-x="738" d="M416 630q-64 0 -114.5 -27.5t-85.5 -73.5t-53.5 -105.5t-18.5 -122.5q0 -48 13 -90t38.5 -73.5t63.5 -49.5t88 -18q64 0 114.5 27.5t85.5 73.5t53.5 105.5t18.5 122.5q0 48 -13 90t-38.5 73.5t-63.5 49.5t-88 18zM339 -12q-71 0 -125 24t-91.5 65t-56.5 97t-19 121 q0 80 25.5 155t73.5 133.5t118 93.5t160 35q70 0 124.5 -24t92 -65t56.5 -97.5t19 -120.5q0 -80 -25.5 -155t-73.5 -133.5t-118 -93.5t-160 -35zM599 806q-21 -18 -44.5 -32.5t-54.5 -14.5q-20 0 -34.5 5.5t-27.5 12t-26 12t-30 5.5q-23 0 -42.5 -10.5t-37.5 -25.5l-24 62 q23 22 52.5 37t58.5 15q19 0 33.5 -5.5t27 -11.5t25.5 -11.5t31 -5.5q20 0 37 9.5t32 21.5z" />
<glyph unicode="&#xd6;" horiz-adv-x="738" d="M416 630q-64 0 -114.5 -27.5t-85.5 -73.5t-53.5 -105.5t-18.5 -122.5q0 -48 13 -90t38.5 -73.5t63.5 -49.5t88 -18q64 0 114.5 27.5t85.5 73.5t53.5 105.5t18.5 122.5q0 48 -13 90t-38.5 73.5t-63.5 49.5t-88 18zM339 -12q-71 0 -125 24t-91.5 65t-56.5 97t-19 121 q0 80 25.5 155t73.5 133.5t118 93.5t160 35q70 0 124.5 -24t92 -65t56.5 -97.5t19 -120.5q0 -80 -25.5 -155t-73.5 -133.5t-118 -93.5t-160 -35zM341 760q-26 0 -40 16t-14 36q0 30 19 49t48 19q26 0 40 -16t14 -36q0 -30 -19 -49t-48 -19zM520 760q-26 0 -40 16t-14 36 q0 30 19 49t48 19q26 0 40 -16t14 -36q0 -30 -19 -49t-48 -19z" />
<glyph unicode="&#xd7;" d="M140 481l62 53l110 -136l158 136l48 -59l-158 -134l113 -133l-62 -52l-111 135l-159 -135l-48 59l158 133z" />
<glyph unicode="&#xd8;" horiz-adv-x="738" d="M339 -12q-37 0 -69.5 7t-60.5 19l-78 -132l-78 45l91 128q-48 42 -72.5 104t-24.5 136q0 80 25.5 155t73.5 133.5t118 93.5t160 35q38 0 70.5 -7t60.5 -20l74 124l78 -45l-86 -122q47 -42 71 -103.5t24 -133.5q0 -80 -25.5 -155t-73.5 -133.5t-118 -93.5t-160 -35z M416 630q-64 0 -114.5 -27.5t-85.5 -73.5t-53.5 -105.5t-18.5 -122.5q0 -49 13.5 -91t39.5 -74l310 474q-40 20 -91 20zM619 399q0 48 -12.5 89.5t-38.5 73.5l-310 -474q37 -18 89 -18q64 0 114.5 27.5t85.5 73.5t53.5 105.5t18.5 122.5z" />
<glyph unicode="&#xd9;" horiz-adv-x="681" d="M585 -5q-56 0 -84.5 26t-28.5 83v22q-41 -63 -95 -100.5t-128 -37.5q-38 0 -72 12.5t-59.5 37t-40.5 60.5t-15 83q0 23 2 42.5t6 43.5l74 433h95l-77 -454q-3 -18 -4 -30.5t-1 -27.5q0 -54 32 -85.5t87 -31.5q34 0 69 16t65 46.5t52.5 75.5t32.5 103l69 388h95l-98 -554 q-1 -5 -1.5 -11.5t-0.5 -13.5q0 -27 15.5 -39t43.5 -12zM479 734l-193 110l52 76l177 -130z" />
<glyph unicode="&#xda;" horiz-adv-x="681" d="M585 -5q-56 0 -84.5 26t-28.5 83v22q-41 -63 -95 -100.5t-128 -37.5q-38 0 -72 12.5t-59.5 37t-40.5 60.5t-15 83q0 23 2 42.5t6 43.5l74 433h95l-77 -454q-3 -18 -4 -30.5t-1 -27.5q0 -54 32 -85.5t87 -31.5q34 0 69 16t65 46.5t52.5 75.5t32.5 103l69 388h95l-98 -554 q-1 -5 -1.5 -11.5t-0.5 -13.5q0 -27 15.5 -39t43.5 -12zM320 790l177 130l52 -76l-193 -110z" />
<glyph unicode="&#xdb;" horiz-adv-x="681" d="M585 -5q-56 0 -84.5 26t-28.5 83v22q-41 -63 -95 -100.5t-128 -37.5q-38 0 -72 12.5t-59.5 37t-40.5 60.5t-15 83q0 23 2 42.5t6 43.5l74 433h95l-77 -454q-3 -18 -4 -30.5t-1 -27.5q0 -54 32 -85.5t87 -31.5q34 0 69 16t65 46.5t52.5 75.5t32.5 103l69 388h95l-98 -554 q-1 -5 -1.5 -11.5t-0.5 -13.5q0 -27 15.5 -39t43.5 -12zM273 742l-34 75l162 83h64l132 -96l-56 -62l-118 95z" />
<glyph unicode="&#xdc;" horiz-adv-x="681" d="M585 -5q-56 0 -84.5 26t-28.5 83v22q-41 -63 -95 -100.5t-128 -37.5q-38 0 -72 12.5t-59.5 37t-40.5 60.5t-15 83q0 23 2 42.5t6 43.5l74 433h95l-77 -454q-3 -18 -4 -30.5t-1 -27.5q0 -54 32 -85.5t87 -31.5q34 0 69 16t65 46.5t52.5 75.5t32.5 103l69 388h95l-98 -554 q-1 -5 -1.5 -11.5t-0.5 -13.5q0 -27 15.5 -39t43.5 -12zM323 760q-26 0 -40 16t-14 36q0 30 19 49t48 19q26 0 40 -16t14 -36q0 -30 -19 -49t-48 -19zM502 760q-26 0 -40 16t-14 36q0 30 19 49t48 19q26 0 40 -16t14 -36q0 -30 -19 -49t-48 -19z" />
<glyph unicode="&#xdd;" horiz-adv-x="562" d="M95 70q60 0 103 76l43 78l-132 353q-10 27 -27.5 38t-47.5 11l40 79q54 0 81 -21.5t44 -70.5l101 -295l215 390l79 -43l-301 -525q-23 -40 -45 -69t-46.5 -47.5t-52 -27t-61.5 -8.5q-39 0 -74 15t-58 40l58 68q16 -18 36 -29.5t45 -11.5zM279 790l177 130l52 -76 l-193 -110z" />
<glyph unicode="&#xde;" horiz-adv-x="564" d="M321 585q61 0 106.5 -17t75.5 -45t44.5 -64.5t14.5 -76.5q0 -62 -23.5 -108.5t-64.5 -78t-97.5 -47.5t-123.5 -16q-24 0 -47.5 2.5t-43.5 7.5l-25 -142h-95l123 700h95l-21 -120q19 2 39 3.5t43 1.5zM313 506q-29 0 -50 -2t-39 -6l-48 -276q19 -6 42.5 -8.5t47.5 -2.5 q54 0 92 12t63 33t36.5 50.5t11.5 64.5q0 60 -40 97.5t-116 37.5z" />
<glyph unicode="&#xdf;" horiz-adv-x="619" d="M168 470q9 75 30 128.5t52.5 87.5t73.5 50t93 16q41 0 76 -13t60.5 -35.5t39.5 -54t14 -68.5q0 -75 -41 -122.5t-117 -71.5q59 -28 92 -73t33 -110q0 -48 -17 -88t-48 -68.5t-74.5 -44t-96.5 -15.5q-37 0 -69.5 9.5t-50.5 21.5l34 77q12 -11 37 -19.5t54 -8.5 q60 0 99 35.5t39 98.5q0 60 -42 101t-113 49l13 73q37 0 69.5 9.5t56.5 28t38 45t14 60.5q0 21 -7.5 40t-21.5 33t-34 22.5t-45 8.5q-66 0 -109.5 -54t-65.5 -178l-117 -660h-90l99 566q3 18 3 30q0 31 -19.5 47t-55.5 16l31 81q36 0 54.5 -12t28.5 -38z" />
<glyph unicode="&#xe0;" horiz-adv-x="592" d="M37 205q0 72 24.5 132.5t68.5 103.5t105 67t133 24q59 0 103.5 -12t73.5 -24l-63 -355q-1 -5 -1.5 -11.5t-0.5 -13.5q0 -28 16 -39.5t42 -11.5l-31 -70q-54 0 -82.5 26t-28.5 83q-28 -48 -70.5 -82t-99.5 -34q-37 0 -71 15t-60.5 43t-42 68.5t-15.5 90.5zM446 443 q-19 6 -39.5 9.5t-49.5 3.5q-52 0 -94 -18t-72 -50t-46 -76t-16 -96q0 -36 10.5 -63.5t27.5 -46.5t38.5 -28.5t44.5 -9.5q30 0 57.5 16t49.5 45.5t38 70t24 88.5zM480 575l-193 109l52 76l177 -130z" />
<glyph unicode="&#xe1;" horiz-adv-x="592" d="M37 205q0 72 24.5 132.5t68.5 103.5t105 67t133 24q59 0 103.5 -12t73.5 -24l-63 -355q-1 -5 -1.5 -11.5t-0.5 -13.5q0 -28 16 -39.5t42 -11.5l-31 -70q-54 0 -82.5 26t-28.5 83q-28 -48 -70.5 -82t-99.5 -34q-37 0 -71 15t-60.5 43t-42 68.5t-15.5 90.5zM446 443 q-19 6 -39.5 9.5t-49.5 3.5q-52 0 -94 -18t-72 -50t-46 -76t-16 -96q0 -36 10.5 -63.5t27.5 -46.5t38.5 -28.5t44.5 -9.5q30 0 57.5 16t49.5 45.5t38 70t24 88.5zM288 630l177 130l52 -76l-193 -109z" />
<glyph unicode="&#xe2;" horiz-adv-x="592" d="M37 205q0 72 24.5 132.5t68.5 103.5t105 67t133 24q59 0 103.5 -12t73.5 -24l-63 -355q-1 -5 -1.5 -11.5t-0.5 -13.5q0 -28 16 -39.5t42 -11.5l-31 -70q-54 0 -82.5 26t-28.5 83q-28 -48 -70.5 -82t-99.5 -34q-37 0 -71 15t-60.5 43t-42 68.5t-15.5 90.5zM446 443 q-19 6 -39.5 9.5t-49.5 3.5q-52 0 -94 -18t-72 -50t-46 -76t-16 -96q0 -36 10.5 -63.5t27.5 -46.5t38.5 -28.5t44.5 -9.5q30 0 57.5 16t49.5 45.5t38 70t24 88.5zM240 572l-34 74l162 94h64l132 -107l-56 -61l-115 105z" />
<glyph unicode="&#xe3;" horiz-adv-x="592" d="M37 205q0 72 24.5 132.5t68.5 103.5t105 67t133 24q59 0 103.5 -12t73.5 -24l-63 -355q-1 -5 -1.5 -11.5t-0.5 -13.5q0 -28 16 -39.5t42 -11.5l-31 -70q-54 0 -82.5 26t-28.5 83q-28 -48 -70.5 -82t-99.5 -34q-37 0 -71 15t-60.5 43t-42 68.5t-15.5 90.5zM446 443 q-19 6 -39.5 9.5t-49.5 3.5q-52 0 -94 -18t-72 -50t-46 -76t-16 -96q0 -36 10.5 -63.5t27.5 -46.5t38.5 -28.5t44.5 -9.5q30 0 57.5 16t49.5 45.5t38 70t24 88.5zM549 656q-21 -18 -44.5 -32.5t-54.5 -14.5q-20 0 -34.5 5.5t-27.5 12t-26 12t-30 5.5q-23 0 -42.5 -10.5 t-37.5 -25.5l-24 62q23 22 52.5 37t58.5 15q19 0 33.5 -5.5t27 -11.5t25.5 -11.5t31 -5.5q20 0 37 9.5t32 21.5z" />
<glyph unicode="&#xe4;" horiz-adv-x="592" d="M37 205q0 72 24.5 132.5t68.5 103.5t105 67t133 24q59 0 103.5 -12t73.5 -24l-63 -355q-1 -5 -1.5 -11.5t-0.5 -13.5q0 -28 16 -39.5t42 -11.5l-31 -70q-54 0 -82.5 26t-28.5 83q-28 -48 -70.5 -82t-99.5 -34q-37 0 -71 15t-60.5 43t-42 68.5t-15.5 90.5zM446 443 q-19 6 -39.5 9.5t-49.5 3.5q-52 0 -94 -18t-72 -50t-46 -76t-16 -96q0 -36 10.5 -63.5t27.5 -46.5t38.5 -28.5t44.5 -9.5q30 0 57.5 16t49.5 45.5t38 70t24 88.5zM293 607q-26 0 -40 16t-14 36q0 30 19 49t48 19q26 0 40 -16t14 -36q0 -30 -19 -49t-48 -19zM472 607 q-26 0 -40 16t-14 36q0 30 19 49t48 19q26 0 40 -16t14 -36q0 -30 -19 -49t-48 -19z" />
<glyph unicode="&#xe5;" horiz-adv-x="592" d="M37 205q0 72 24.5 132.5t68.5 103.5t105 67t133 24q59 0 103.5 -12t73.5 -24l-63 -355q-1 -5 -1.5 -11.5t-0.5 -13.5q0 -28 16 -39.5t42 -11.5l-31 -70q-54 0 -82.5 26t-28.5 83q-28 -48 -70.5 -82t-99.5 -34q-37 0 -71 15t-60.5 43t-42 68.5t-15.5 90.5zM446 443 q-19 6 -39.5 9.5t-49.5 3.5q-52 0 -94 -18t-72 -50t-46 -76t-16 -96q0 -36 10.5 -63.5t27.5 -46.5t38.5 -28.5t44.5 -9.5q30 0 57.5 16t49.5 45.5t38 70t24 88.5zM394 644q25 0 40 19t15 46q0 23 -11 37t-31 14q-25 0 -40 -19t-15 -46q0 -23 11 -37t31 -14zM388 582 q-50 0 -82 28t-32 76q0 29 10 54t28 43t43.5 28.5t57.5 10.5q50 0 82 -28t32 -76q0 -29 -10 -54t-28 -43t-44 -28.5t-57 -10.5z" />
<glyph unicode="&#xe6;" horiz-adv-x="880" d="M276 532q69 0 117 -29t72 -86q40 60 93.5 87.5t122.5 27.5q43 0 76.5 -13t57 -34t36 -49t12.5 -58q0 -56 -26.5 -91t-66.5 -55.5t-88 -28t-91 -7.5q-27 0 -53.5 2.5t-46.5 5.5q8 -66 46.5 -101t100.5 -35q50 0 89 13t66 26l8 -80q-30 -14 -75.5 -26.5t-102.5 -12.5 q-69 0 -119.5 30.5t-78.5 90.5q-42 -57 -98 -89t-134 -32q-41 0 -74.5 11.5t-57 31.5t-36.5 47t-13 58q0 43 18 77.5t49.5 58.5t74 36.5t92.5 12.5q43 0 82.5 -5.5t74.5 -13.5v7q0 66 -38.5 105.5t-103.5 39.5q-38 0 -70.5 -9.5t-61.5 -23.5l-10 76q35 16 72 25.5t85 9.5z M673 456q-35 0 -65.5 -13.5t-54 -37.5t-39 -57t-21.5 -72q23 -5 46 -7t52 -2q85 0 133.5 23.5t48.5 80.5q0 35 -27.5 60t-72.5 25zM204 68q37 0 67.5 13t54.5 35t40.5 51.5t25.5 62.5q-35 10 -69 14t-74 4q-30 0 -56 -6.5t-46 -19t-31.5 -32t-11.5 -45.5q0 -33 27.5 -55 t72.5 -22z" />
<glyph unicode="&#xe7;" horiz-adv-x="460" d="M338 -140q0 -26 -11.5 -45t-31 -32.5t-46 -20t-56.5 -6.5q-35 0 -60.5 6t-46.5 17l35 63q16 -9 33 -14.5t39 -5.5q30 0 46.5 10t16.5 29q0 18 -23.5 31t-83.5 13l49 90q-74 17 -117.5 77t-43.5 149q0 63 19.5 119t56.5 99t89 68t118 25q47 0 83 -11.5t65 -28.5l-37 -77 q-26 16 -54.5 26.5t-63.5 10.5q-42 0 -76 -17t-58 -46.5t-37 -69.5t-13 -86q0 -76 38 -120.5t104 -44.5q38 0 67 9t53 21l11 -79q-23 -11 -56 -20t-78 -11l-24 -47q42 0 68 -22.5t26 -58.5z" />
<glyph unicode="&#xe8;" horiz-adv-x="518" d="M261 -12q-50 0 -91 16.5t-70.5 47t-46 74.5t-16.5 99q0 62 20 118t56.5 98t88.5 66.5t116 24.5q43 0 77 -13t57.5 -34t36 -49t12.5 -58q0 -56 -26.5 -91t-66.5 -55.5t-88 -28t-91 -7.5q-27 0 -53.5 2.5t-46.5 5.5q8 -66 46.5 -101t100.5 -35q50 0 89 13t66 26l8 -80 q-30 -14 -75.5 -26.5t-102.5 -12.5zM311 456q-35 0 -65.5 -13.5t-54 -37.5t-39 -57t-21.5 -72q23 -5 46 -7t52 -2q85 0 133.5 23.5t48.5 80.5q0 35 -27.5 60t-72.5 25zM424 575l-193 109l52 76l177 -130z" />
<glyph unicode="&#xe9;" horiz-adv-x="518" d="M261 -12q-50 0 -91 16.5t-70.5 47t-46 74.5t-16.5 99q0 62 20 118t56.5 98t88.5 66.5t116 24.5q43 0 77 -13t57.5 -34t36 -49t12.5 -58q0 -56 -26.5 -91t-66.5 -55.5t-88 -28t-91 -7.5q-27 0 -53.5 2.5t-46.5 5.5q8 -66 46.5 -101t100.5 -35q50 0 89 13t66 26l8 -80 q-30 -14 -75.5 -26.5t-102.5 -12.5zM311 456q-35 0 -65.5 -13.5t-54 -37.5t-39 -57t-21.5 -72q23 -5 46 -7t52 -2q85 0 133.5 23.5t48.5 80.5q0 35 -27.5 60t-72.5 25zM226 630l177 130l52 -76l-193 -109z" />
<glyph unicode="&#xea;" horiz-adv-x="518" d="M261 -12q-50 0 -91 16.5t-70.5 47t-46 74.5t-16.5 99q0 62 20 118t56.5 98t88.5 66.5t116 24.5q43 0 77 -13t57.5 -34t36 -49t12.5 -58q0 -56 -26.5 -91t-66.5 -55.5t-88 -28t-91 -7.5q-27 0 -53.5 2.5t-46.5 5.5q8 -66 46.5 -101t100.5 -35q50 0 89 13t66 26l8 -80 q-30 -14 -75.5 -26.5t-102.5 -12.5zM311 456q-35 0 -65.5 -13.5t-54 -37.5t-39 -57t-21.5 -72q23 -5 46 -7t52 -2q85 0 133.5 23.5t48.5 80.5q0 35 -27.5 60t-72.5 25zM177 572l-34 74l162 94h64l132 -107l-56 -61l-115 105z" />
<glyph unicode="&#xeb;" horiz-adv-x="518" d="M261 -12q-50 0 -91 16.5t-70.5 47t-46 74.5t-16.5 99q0 62 20 118t56.5 98t88.5 66.5t116 24.5q43 0 77 -13t57.5 -34t36 -49t12.5 -58q0 -56 -26.5 -91t-66.5 -55.5t-88 -28t-91 -7.5q-27 0 -53.5 2.5t-46.5 5.5q8 -66 46.5 -101t100.5 -35q50 0 89 13t66 26l8 -80 q-30 -14 -75.5 -26.5t-102.5 -12.5zM311 456q-35 0 -65.5 -13.5t-54 -37.5t-39 -57t-21.5 -72q23 -5 46 -7t52 -2q85 0 133.5 23.5t48.5 80.5q0 35 -27.5 60t-72.5 25zM245 607q-26 0 -40 16t-14 36q0 30 19 49t48 19q26 0 40 -16t14 -36q0 -30 -19 -49t-48 -19zM424 607 q-26 0 -40 16t-14 36q0 30 19 49t48 19q26 0 40 -16t14 -36q0 -30 -19 -49t-48 -19z" />
<glyph unicode="&#xec;" horiz-adv-x="255" d="M276 575l-193 109l52 76l177 -130zM127 0h-90l91 520h90z" />
<glyph unicode="&#xed;" horiz-adv-x="255" d="M84 630l177 130l52 -76l-193 -109zM127 0h-90l91 520h90z" />
<glyph unicode="&#xee;" horiz-adv-x="255" d="M53 572l-34 74l162 94h64l132 -107l-56 -61l-115 105zM127 0h-90l91 520h90z" />
<glyph unicode="&#xef;" horiz-adv-x="255" d="M103 607q-26 0 -40 16t-14 36q0 30 19 49t48 19q26 0 40 -16t14 -36q0 -30 -19 -49t-48 -19zM282 607q-26 0 -40 16t-14 36q0 30 19 49t48 19q26 0 40 -16t14 -36q0 -30 -19 -49t-48 -19zM127 0h-90l91 520h90z" />
<glyph unicode="&#xf0;" horiz-adv-x="540" d="M228 546l71 66q-20 9 -42 14t-47 5q-26 0 -44 -3l14 82q8 1 16 1.5t16 0.5q44 0 79 -9t69 -29l72 84l57 -48l-77 -74q101 -94 101 -269q0 -83 -21 -152.5t-58.5 -120t-88.5 -78.5t-111 -28q-43 0 -81 14t-66 40.5t-44 63.5t-16 82q0 53 18.5 98t49.5 77.5t72 51t87 18.5 q57 0 100 -26t66 -68q1 11 1.5 22.5t0.5 25.5q0 59 -18.5 107.5t-52.5 80.5l-67 -77zM266 358q-33 0 -60.5 -12t-47 -33.5t-30 -51t-10.5 -63.5q0 -29 9.5 -53t25.5 -41t38 -26.5t48 -9.5q59 0 105 48.5t66 149.5q-24 40 -60.5 66t-83.5 26z" />
<glyph unicode="&#xf1;" horiz-adv-x="589" d="M364 453q-26 0 -56.5 -14.5t-59 -44.5t-51.5 -76.5t-34 -110.5l-36 -207h-90l91 520h87l-22 -120q31 60 83 96t111 36q34 0 62 -11t47.5 -30.5t30 -45.5t10.5 -56q0 -26 -6 -63l-57 -326h-90l55 311q5 24 6 35t1 22q0 39 -22.5 62t-59.5 23zM536 656q-21 -18 -44.5 -32.5 t-54.5 -14.5q-20 0 -34.5 5.5t-27.5 12t-26 12t-30 5.5q-23 0 -42.5 -10.5t-37.5 -25.5l-24 62q23 22 52.5 37t58.5 15q19 0 33.5 -5.5t27 -11.5t25.5 -11.5t31 -5.5q20 0 37 9.5t32 21.5z" />
<glyph unicode="&#xf2;" horiz-adv-x="601" d="M281 68q45 0 80 17t60 47t38 70t13 87q0 34 -10.5 64t-30 52t-47.5 34.5t-64 12.5q-44 0 -79.5 -17t-60.5 -47t-38 -70.5t-13 -86.5q0 -34 10 -64t29.5 -52t48 -34.5t64.5 -12.5zM278 -12q-56 0 -100.5 17.5t-75.5 48.5t-48 74.5t-17 94.5q0 65 20 121.5t57.5 98 t90.5 65.5t118 24q55 0 100 -17.5t76 -48.5t48 -74.5t17 -94.5q0 -65 -20 -121.5t-57.5 -98t-90.5 -65.5t-118 -24zM455 575l-193 109l52 76l177 -130z" />
<glyph unicode="&#xf3;" horiz-adv-x="601" d="M281 68q45 0 80 17t60 47t38 70t13 87q0 34 -10.5 64t-30 52t-47.5 34.5t-64 12.5q-44 0 -79.5 -17t-60.5 -47t-38 -70.5t-13 -86.5q0 -34 10 -64t29.5 -52t48 -34.5t64.5 -12.5zM278 -12q-56 0 -100.5 17.5t-75.5 48.5t-48 74.5t-17 94.5q0 65 20 121.5t57.5 98 t90.5 65.5t118 24q55 0 100 -17.5t76 -48.5t48 -74.5t17 -94.5q0 -65 -20 -121.5t-57.5 -98t-90.5 -65.5t-118 -24zM241 630l177 130l52 -76l-193 -109z" />
<glyph unicode="&#xf4;" horiz-adv-x="601" d="M281 68q45 0 80 17t60 47t38 70t13 87q0 34 -10.5 64t-30 52t-47.5 34.5t-64 12.5q-44 0 -79.5 -17t-60.5 -47t-38 -70.5t-13 -86.5q0 -34 10 -64t29.5 -52t48 -34.5t64.5 -12.5zM278 -12q-56 0 -100.5 17.5t-75.5 48.5t-48 74.5t-17 94.5q0 65 20 121.5t57.5 98 t90.5 65.5t118 24q55 0 100 -17.5t76 -48.5t48 -74.5t17 -94.5q0 -65 -20 -121.5t-57.5 -98t-90.5 -65.5t-118 -24zM206 572l-34 74l162 94h64l132 -107l-56 -61l-115 105z" />
<glyph unicode="&#xf5;" horiz-adv-x="601" d="M281 68q45 0 80 17t60 47t38 70t13 87q0 34 -10.5 64t-30 52t-47.5 34.5t-64 12.5q-44 0 -79.5 -17t-60.5 -47t-38 -70.5t-13 -86.5q0 -34 10 -64t29.5 -52t48 -34.5t64.5 -12.5zM278 -12q-56 0 -100.5 17.5t-75.5 48.5t-48 74.5t-17 94.5q0 65 20 121.5t57.5 98 t90.5 65.5t118 24q55 0 100 -17.5t76 -48.5t48 -74.5t17 -94.5q0 -65 -20 -121.5t-57.5 -98t-90.5 -65.5t-118 -24zM513 656q-21 -18 -44.5 -32.5t-54.5 -14.5q-20 0 -34.5 5.5t-27.5 12t-26 12t-30 5.5q-23 0 -42.5 -10.5t-37.5 -25.5l-24 62q23 22 52.5 37t58.5 15 q19 0 33.5 -5.5t27 -11.5t25.5 -11.5t31 -5.5q20 0 37 9.5t32 21.5z" />
<glyph unicode="&#xf6;" horiz-adv-x="601" d="M281 68q45 0 80 17t60 47t38 70t13 87q0 34 -10.5 64t-30 52t-47.5 34.5t-64 12.5q-44 0 -79.5 -17t-60.5 -47t-38 -70.5t-13 -86.5q0 -34 10 -64t29.5 -52t48 -34.5t64.5 -12.5zM278 -12q-56 0 -100.5 17.5t-75.5 48.5t-48 74.5t-17 94.5q0 65 20 121.5t57.5 98 t90.5 65.5t118 24q55 0 100 -17.5t76 -48.5t48 -74.5t17 -94.5q0 -65 -20 -121.5t-57.5 -98t-90.5 -65.5t-118 -24zM256 607q-26 0 -40 16t-14 36q0 30 19 49t48 19q26 0 40 -16t14 -36q0 -30 -19 -49t-48 -19zM435 607q-26 0 -40 16t-14 36q0 30 19 49t48 19q26 0 40 -16 t14 -36q0 -30 -19 -49t-48 -19z" />
<glyph unicode="&#xf7;" d="M127 302l15 82h340l-15 -82h-340zM260 71q-29 0 -45.5 17t-16.5 40q0 37 22.5 57t51.5 20t45.5 -17t16.5 -40q0 -37 -22.5 -57t-51.5 -20zM334 481q-29 0 -45.5 17t-16.5 40q0 37 22.5 57t51.5 20t45.5 -17t16.5 -40q0 -37 -22.5 -57t-51.5 -20z" />
<glyph unicode="&#xf8;" horiz-adv-x="601" d="M278 -12q-56 0 -101 18l-69 -121l-69 41l79 113q-39 32 -60 79t-21 105q0 65 20 121.5t57.5 98t90.5 65.5t118 24q53 0 99 -17l68 116l69 -41l-77 -109q39 -32 60.5 -79t21.5 -105q0 -65 -20 -121.5t-57.5 -98t-90.5 -65.5t-118 -24zM281 68q45 0 80 17t60 47t38 70 t13 87q0 69 -40 115l-209 -326q21 -10 58 -10zM129 231q0 -70 38 -114l209 325q-25 10 -56 10q-44 0 -79.5 -17t-60.5 -47t-38 -70.5t-13 -86.5z" />
<glyph unicode="&#xf9;" horiz-adv-x="579" d="M194 -12q-30 0 -56.5 10t-47 29t-32 46t-11.5 61q0 13 1 26.5t3 28.5l57 331h90l-58 -329q-2 -10 -2.5 -17.5t-0.5 -16.5q0 -45 26 -67t61 -22q28 0 56.5 13.5t52.5 38.5t42.5 61.5t26.5 83.5l45 255h90l-66 -379q-1 -5 -1.5 -11.5t-0.5 -13.5q0 -28 16 -39.5t42 -11.5 l-31 -70q-54 0 -82.5 26t-28.5 83v9q-73 -125 -191 -125zM429 575l-193 109l52 76l177 -130z" />
<glyph unicode="&#xfa;" horiz-adv-x="579" d="M194 -12q-30 0 -56.5 10t-47 29t-32 46t-11.5 61q0 13 1 26.5t3 28.5l57 331h90l-58 -329q-2 -10 -2.5 -17.5t-0.5 -16.5q0 -45 26 -67t61 -22q28 0 56.5 13.5t52.5 38.5t42.5 61.5t26.5 83.5l45 255h90l-66 -379q-1 -5 -1.5 -11.5t-0.5 -13.5q0 -28 16 -39.5t42 -11.5 l-31 -70q-54 0 -82.5 26t-28.5 83v9q-73 -125 -191 -125zM246 630l177 130l52 -76l-193 -109z" />
<glyph unicode="&#xfb;" horiz-adv-x="579" d="M194 -12q-30 0 -56.5 10t-47 29t-32 46t-11.5 61q0 13 1 26.5t3 28.5l57 331h90l-58 -329q-2 -10 -2.5 -17.5t-0.5 -16.5q0 -45 26 -67t61 -22q28 0 56.5 13.5t52.5 38.5t42.5 61.5t26.5 83.5l45 255h90l-66 -379q-1 -5 -1.5 -11.5t-0.5 -13.5q0 -28 16 -39.5t42 -11.5 l-31 -70q-54 0 -82.5 26t-28.5 83v9q-73 -125 -191 -125zM197 572l-34 74l162 94h64l132 -107l-56 -61l-115 105z" />
<glyph unicode="&#xfc;" horiz-adv-x="579" d="M194 -12q-30 0 -56.5 10t-47 29t-32 46t-11.5 61q0 13 1 26.5t3 28.5l57 331h90l-58 -329q-2 -10 -2.5 -17.5t-0.5 -16.5q0 -45 26 -67t61 -22q28 0 56.5 13.5t52.5 38.5t42.5 61.5t26.5 83.5l45 255h90l-66 -379q-1 -5 -1.5 -11.5t-0.5 -13.5q0 -28 16 -39.5t42 -11.5 l-31 -70q-54 0 -82.5 26t-28.5 83v9q-73 -125 -191 -125zM251 607q-26 0 -40 16t-14 36q0 30 19 49t48 19q26 0 40 -16t14 -36q0 -30 -19 -49t-48 -19zM430 607q-26 0 -40 16t-14 36q0 30 19 49t48 19q26 0 40 -16t14 -36q0 -30 -19 -49t-48 -19z" />
<glyph unicode="&#xfd;" horiz-adv-x="561" d="M225 80q28 0 56 13.5t52.5 39.5t42.5 64t27 87l41 236h90l-91 -526q-12 -69 -37 -112.5t-57 -69t-68 -35t-71 -9.5q-68 0 -115.5 27.5t-77.5 65.5l70 52q49 -67 129 -67q50 0 88 37t54 126l19 106q-30 -48 -76 -81.5t-106 -33.5q-30 0 -56 10t-46 29t-31.5 46t-11.5 61 q0 11 1 25t3 30l54 319h90l-55 -317q-3 -18 -3 -34q0 -45 25 -67t60 -22zM242 630l177 130l52 -76l-193 -109z" />
<glyph unicode="&#xfe;" d="M7 -220l162 920h90l-49 -275q29 48 72.5 77.5t99.5 29.5q40 0 72.5 -16t55.5 -44.5t35.5 -68t12.5 -87.5q0 -74 -22 -134.5t-58 -103.5t-82 -66.5t-94 -23.5t-89 24t-65 60l-51 -292h-90zM295 68q35 0 66.5 17.5t55.5 49t38 75.5t14 97q0 69 -31 108t-81 39 q-33 0 -62 -17t-52.5 -47.5t-41 -73t-26.5 -93.5l-13 -71q22 -41 57 -62.5t76 -21.5z" />
<glyph unicode="&#xff;" horiz-adv-x="561" d="M225 80q28 0 56 13.5t52.5 39.5t42.5 64t27 87l41 236h90l-91 -526q-12 -69 -37 -112.5t-57 -69t-68 -35t-71 -9.5q-68 0 -115.5 27.5t-77.5 65.5l70 52q49 -67 129 -67q50 0 88 37t54 126l19 106q-30 -48 -76 -81.5t-106 -33.5q-30 0 -56 10t-46 29t-31.5 46t-11.5 61 q0 11 1 25t3 30l54 319h90l-55 -317q-3 -18 -3 -34q0 -45 25 -67t60 -22zM249 607q-26 0 -40 16t-14 36q0 30 19 49t48 19q26 0 40 -16t14 -36q0 -30 -19 -49t-48 -19zM428 607q-26 0 -40 16t-14 36q0 30 19 49t48 19q26 0 40 -16t14 -36q0 -30 -19 -49t-48 -19z" />
<glyph unicode="&#x127;" horiz-adv-x="599" d="M456 368q0 38 -22.5 61.5t-58.5 23.5q-27 0 -57.5 -14t-59 -43.5t-51 -74.5t-33.5 -108l-37 -213h-90l103 585h-79l11 66h79l16 89h90l-16 -89h122l-11 -66h-122l-31 -174q31 55 81 88t107 33q34 0 62 -11t47.5 -30.5t30 -45.5t10.5 -56q0 -26 -6 -63l-57 -326h-90 l55 311q5 24 6 35t1 22z" />
<glyph unicode="&#x128;" horiz-adv-x="272" d="M42 0l123 700h95l-123 -700h-95zM394 806q-21 -18 -44.5 -32.5t-54.5 -14.5q-20 0 -34.5 5.5t-27.5 12t-26 12t-30 5.5q-23 0 -42.5 -10.5t-37.5 -25.5l-24 62q23 22 52.5 37t58.5 15q19 0 33.5 -5.5t27 -11.5t25.5 -11.5t31 -5.5q20 0 37 9.5t32 21.5z" />
<glyph unicode="&#x129;" horiz-adv-x="255" d="M360 656q-21 -18 -44.5 -32.5t-54.5 -14.5q-20 0 -34.5 5.5t-27.5 12t-26 12t-30 5.5q-23 0 -42.5 -10.5t-37.5 -25.5l-24 62q23 22 52.5 37t58.5 15q19 0 33.5 -5.5t27 -11.5t25.5 -11.5t31 -5.5q20 0 37 9.5t32 21.5zM127 0h-90l91 520h90z" />
<glyph unicode="&#x131;" horiz-adv-x="255" d="M127 0h-90l91 520h90z" />
<glyph unicode="&#x132;" horiz-adv-x="683" d="M42 0l123 700h95l-123 -700h-95zM383 -12q-51 0 -90.5 19.5t-68.5 51.5l58 70q20 -25 45.5 -42t59.5 -17q36 0 65.5 27.5t42.5 96.5l91 506h95l-91 -510q-12 -66 -36.5 -106t-53.5 -61.5t-60.5 -28t-56.5 -6.5z" />
<glyph unicode="&#x133;" horiz-adv-x="520" d="M127 0h-90l91 520h90zM194 609q-28 0 -42.5 16.5t-14.5 38.5q0 32 20 51.5t50 19.5q28 0 42.5 -16.5t14.5 -38.5q0 -32 -20 -51.5t-50 -19.5zM392 520h90l-104 -592q-8 -44 -23 -74.5t-36.5 -49.5t-48.5 -27.5t-58 -8.5q-33 0 -60.5 9t-48.5 25l36 74q14 -14 32.5 -22 t41.5 -8q27 0 46.5 19t27.5 61zM458 609q-28 0 -42.5 16.5t-14.5 38.5q0 32 20 51.5t50 19.5q28 0 42.5 -16.5t14.5 -38.5q0 -32 -20 -51.5t-50 -19.5z" />
<glyph unicode="&#x134;" horiz-adv-x="411" d="M111 -12q-51 0 -90.5 19.5t-68.5 51.5l58 70q20 -25 45.5 -42t59.5 -17q36 0 65.5 27.5t42.5 96.5l91 506h95l-91 -510q-12 -66 -36.5 -106t-53.5 -61.5t-60.5 -28t-56.5 -6.5zM236 742l-34 75l162 83h64l132 -96l-56 -62l-118 95z" />
<glyph unicode="&#x135;" horiz-adv-x="264" d="M61 572l-34 74l162 94h64l132 -107l-56 -61l-115 105zM136 520h90l-104 -592q-8 -44 -23 -74.5t-36.5 -49.5t-48.5 -27.5t-58 -8.5q-33 0 -60.5 9t-48.5 25l36 74q14 -14 32.5 -22t41.5 -8q27 0 46.5 19t27.5 61z" />
<glyph unicode="&#x137;" horiz-adv-x="543" d="M167 740h90l-54 -307q27 46 71 72.5t99 26.5q32 0 59.5 -10.5t47 -28.5t30.5 -42.5t11 -52.5q0 -40 -14 -69t-39.5 -48t-60 -28t-75.5 -9h-10q-5 0 -12 1l85 -130q17 -26 38.5 -38t58.5 -12l-31 -70q-47 0 -78.5 13.5t-56.5 56.5l-123 212l9 29q15 -7 38 -11.5t52 -4.5 q66 0 99 27t33 71q0 31 -22.5 52.5t-60.5 21.5q-21 0 -47.5 -9.5t-52.5 -32.5t-47.5 -62t-31.5 -99l-45 -259h-90zM289 -33q-19 -66 -58.5 -113.5t-95.5 -77.5l-40 24q42 43 70.5 87t50.5 101z" />
<glyph unicode="&#x138;" horiz-adv-x="491" d="M128 520h90l-38 -220l247 222l52 -56l-231 -195l132 -153q28 -32 49.5 -40.5t41.5 -8.5l-33 -77q-21 0 -37 4.5t-30.5 14t-28.5 24t-30 34.5l-143 172l-42 -241h-90z" />
<glyph unicode="&#x13f;" horiz-adv-x="510" d="M165 700h95l-108 -615h321l-15 -85h-416zM335 297q-28 0 -42.5 16.5t-14.5 38.5q0 32 20 51.5t50 19.5q28 0 42.5 -16.5t14.5 -38.5q0 -32 -20 -51.5t-50 -19.5z" />
<glyph unicode="&#x140;" horiz-adv-x="390" d="M146 180q-2 -14 -3 -24t-1 -18q0 -35 20 -53.5t55 -18.5q17 0 34 4t31 11l9 -73q-18 -9 -42 -14.5t-52 -5.5q-30 0 -56.5 8.5t-46 25.5t-31 43.5t-11.5 61.5q0 14 1 25.5t3 25.5l98 562h90zM299 288q-29 0 -45.5 17t-16.5 40q0 37 22.5 57t51.5 20t45.5 -17t16.5 -40 q0 -37 -22.5 -57t-51.5 -20z" />
<glyph unicode="&#x141;" horiz-adv-x="521" d="M102 282l-73 -27l-27 68l115 42l59 335h95l-52 -296l207 78l28 -69l-250 -93l-41 -235h321l-15 -85h-416z" />
<glyph unicode="&#x142;" horiz-adv-x="353" d="M210 442l137 58l19 -71l-171 -73l-31 -176q-2 -14 -3 -24t-1 -18q0 -35 20 -53.5t55 -18.5q17 0 34 4t31 11l9 -73q-18 -9 -42 -14.5t-52 -5.5q-30 0 -56.5 8.5t-46 25.5t-31 43.5t-11.5 61.5q0 14 1 25.5t3 25.5l24 136l-62 -26l-19 71l96 43l59 338h90z" />
<glyph unicode="&#x143;" horiz-adv-x="702" d="M234 584l-102 -584h-90l123 700h126l205 -588l104 588h90l-123 -700h-124zM354 790l177 130l52 -76l-193 -110z" />
<glyph unicode="&#x144;" horiz-adv-x="589" d="M364 453q-26 0 -56.5 -14.5t-59 -44.5t-51.5 -76.5t-34 -110.5l-36 -207h-90l91 520h87l-22 -120q31 60 83 96t111 36q34 0 62 -11t47.5 -30.5t30 -45.5t10.5 -56q0 -26 -6 -63l-57 -326h-90l55 311q5 24 6 35t1 22q0 39 -22.5 62t-59.5 23zM261 630l177 130l52 -76 l-193 -109z" />
<glyph unicode="&#x152;" horiz-adv-x="892" d="M424 712q28 0 53.5 -3.5t49.5 -8.5h403l-14 -82h-310l-38 -213h265l-14 -80h-265l-43 -243h310l-14 -82h-389q-21 -5 -44.5 -8.5t-48.5 -3.5q-65 0 -116.5 23.5t-87.5 65t-55 97.5t-19 121q0 80 25.5 155t73.5 133.5t118 93.5t160 35zM347 70q20 0 37 1.5t34 6.5l95 538 q-20 7 -43.5 10.5t-53.5 3.5q-64 0 -114.5 -27.5t-85.5 -73.5t-53.5 -105.5t-18.5 -122.5q0 -48 13 -90t38.5 -73.5t63.5 -49.5t88 -18z" />
<glyph unicode="&#x153;" horiz-adv-x="951" d="M276 -12q-55 0 -99 17.5t-75 48.5t-48 74.5t-17 94.5q0 65 20 121.5t57.5 98t90.5 65.5t118 24q75 0 127 -32.5t81 -87.5q38 59 92.5 89.5t125.5 30.5q44 0 78.5 -13t58 -34.5t36 -50.5t12.5 -61q0 -40 -16 -71.5t-44 -53t-66 -33t-81 -11.5q-54 0 -95.5 13.5t-70.5 38.5 v-20q0 -82 41 -125t111 -43q48 0 86 13t65 26l8 -80q-30 -14 -75.5 -26.5t-102.5 -12.5q-66 0 -115.5 32t-76.5 95q-38 -60 -94.5 -93.5t-131.5 -33.5zM281 68q45 0 80 17t60 47t38 70t13 87q0 34 -10.5 64t-30 52t-47.5 34.5t-64 12.5q-44 0 -79.5 -17t-60.5 -47t-38 -70.5 t-13 -86.5q0 -34 10 -64t29.5 -52t48 -34.5t64.5 -12.5zM743 456q-57 0 -100 -34t-65 -89q29 -29 68 -44.5t82 -15.5q52 0 84 24.5t32 71.5q0 37 -28 62t-73 25z" />
<glyph unicode="&#x154;" horiz-adv-x="621" d="M164 690q45 8 84.5 13t92.5 5q57 0 100.5 -14t73.5 -38t45 -56.5t15 -69.5q0 -45 -15.5 -79t-43 -58t-66.5 -38.5t-86 -21.5q41 -19 64 -45t36 -54.5t21 -57t19 -51t29 -36.5t51 -14l-35 -82q-52 0 -80 23t-45.5 58t-31 75t-36 75t-60.5 58t-105 23l-54 -305h-95z M335 629q-26 0 -47.5 -2t-40.5 -6l-42 -236h83q88 0 140.5 36t52.5 97q0 49 -38.5 80t-107.5 31zM283 790l177 130l52 -76l-193 -110z" />
<glyph unicode="&#x156;" horiz-adv-x="621" d="M164 690q45 8 84.5 13t92.5 5q57 0 100.5 -14t73.5 -38t45 -56.5t15 -69.5q0 -45 -15.5 -79t-43 -58t-66.5 -38.5t-86 -21.5q41 -19 64 -45t36 -54.5t21 -57t19 -51t29 -36.5t51 -14l-35 -82q-52 0 -80 23t-45.5 58t-31 75t-36 75t-60.5 58t-105 23l-54 -305h-95z M335 629q-26 0 -47.5 -2t-40.5 -6l-42 -236h83q88 0 140.5 36t52.5 97q0 49 -38.5 80t-107.5 31zM339 -33q-19 -66 -58.5 -113.5t-95.5 -77.5l-40 24q42 43 70.5 87t50.5 101z" />
<glyph unicode="&#x157;" horiz-adv-x="405" d="M118 374q1 5 1.5 11.5t0.5 13.5q0 28 -16 39.5t-42 11.5l31 70q54 0 82 -25t28 -76v-20q29 72 74.5 102.5t103.5 30.5q23 0 39.5 -3.5t27.5 -8.5l-40 -88q-12 5 -25 7t-30 2q-27 0 -54 -13.5t-51 -45.5t-44 -84t-33 -129l-29 -169h-90zM127 -70q-19 -66 -58.5 -113.5 t-95.5 -77.5l-40 24q42 43 70.5 87t50.5 101z" />
<glyph unicode="&#x158;" horiz-adv-x="621" d="M164 690q45 8 84.5 13t92.5 5q57 0 100.5 -14t73.5 -38t45 -56.5t15 -69.5q0 -45 -15.5 -79t-43 -58t-66.5 -38.5t-86 -21.5q41 -19 64 -45t36 -54.5t21 -57t19 -51t29 -36.5t51 -14l-35 -82q-52 0 -80 23t-45.5 58t-31 75t-36 75t-60.5 58t-105 23l-54 -305h-95z M335 629q-26 0 -47.5 -2t-40.5 -6l-42 -236h83q88 0 140.5 36t52.5 97q0 49 -38.5 80t-107.5 31zM205 836l45 71l123 -95l144 95l44 -71l-162 -87h-64z" />
<glyph unicode="&#x159;" horiz-adv-x="405" d="M118 374q1 5 1.5 11.5t0.5 13.5q0 28 -16 39.5t-42 11.5l31 70q54 0 82 -25t28 -76v-20q29 72 74.5 102.5t103.5 30.5q23 0 39.5 -3.5t27.5 -8.5l-40 -88q-12 5 -25 7t-30 2q-27 0 -54 -13.5t-51 -45.5t-44 -84t-33 -129l-29 -169h-90zM91 681l45 75l124 -106l143 105 l44 -74l-162 -94h-64z" />
<glyph unicode="&#x237;" horiz-adv-x="264" d="M136 520h90l-104 -592q-8 -44 -23 -74.5t-36.5 -49.5t-48.5 -27.5t-58 -8.5q-33 0 -60.5 9t-48.5 25l36 74q14 -14 32.5 -22t41.5 -8q27 0 46.5 19t27.5 61z" />
<glyph unicode="&#x2c6;" horiz-adv-x="458" d="M84 572l-34 74l162 94h64l132 -107l-56 -61l-115 105z" />
<glyph unicode="&#x2c7;" horiz-adv-x="456" d="M50 681l45 75l124 -106l143 105l44 -74l-162 -94h-64z" />
<glyph unicode="&#x2da;" horiz-adv-x="333" d="M160 644q25 0 40 19t15 46q0 23 -11 37t-31 14q-25 0 -40 -19t-15 -46q0 -23 11 -37t31 -14zM154 582q-50 0 -82 28t-32 76q0 29 10 54t28 43t43.5 28.5t57.5 10.5q50 0 82 -28t32 -76q0 -29 -10 -54t-28 -43t-44 -28.5t-57 -10.5z" />
<glyph unicode="&#x2dc;" horiz-adv-x="421" d="M371 656q-21 -18 -44.5 -32.5t-54.5 -14.5q-20 0 -34.5 5.5t-27.5 12t-26 12t-30 5.5q-23 0 -42.5 -10.5t-37.5 -25.5l-24 62q23 22 52.5 37t58.5 15q19 0 33.5 -5.5t27 -11.5t25.5 -11.5t31 -5.5q20 0 37 9.5t32 21.5z" />
<glyph unicode="&#x307;" horiz-adv-x="207" d="M97 609q-28 0 -42.5 16.5t-14.5 38.5q0 32 20 51.5t50 19.5q28 0 42.5 -16.5t14.5 -38.5q0 -32 -20 -51.5t-50 -19.5z" />
<glyph unicode="&#x2013;" d="M72 302l15 82h460l-15 -82h-460z" />
<glyph unicode="&#x2014;" horiz-adv-x="750" d="M77 302l15 82h600l-15 -82h-600z" />
<glyph unicode="&#x2018;" horiz-adv-x="228" d="M246 604q0 -31 -22 -51.5t-55 -20.5q-31 0 -50 19t-19 54q0 28 10.5 54t28.5 49t42 42t51 32l16 -35q-26 -16 -47.5 -38.5t-32.5 -51.5q10 3 21 3q25 0 41 -16t16 -40z" />
<glyph unicode="&#x2019;" horiz-adv-x="228" d="M102 680q0 31 22 51.5t55 20.5q31 0 50 -19t19 -54q0 -28 -10.5 -54t-28.5 -49t-42 -42t-51 -32l-16 35q26 16 47.5 38.5t32.5 51.5q-11 -3 -21 -3q-25 0 -41 16t-16 40z" />
<glyph unicode="&#x201a;" horiz-adv-x="228" d="M8 51q0 31 22 51.5t55 20.5q31 0 50 -19t19 -54q0 -28 -10.5 -54t-28.5 -49t-42 -42t-51 -32l-16 35q26 16 47.5 38.5t32.5 51.5q-11 -3 -21 -3q-25 0 -41 16t-16 40z" />
<glyph unicode="&#x201c;" horiz-adv-x="411" d="M246 604q0 -31 -22 -51.5t-55 -20.5q-31 0 -50 19t-19 54q0 28 10.5 54t28.5 49t42 42t51 32l16 -35q-26 -16 -47.5 -38.5t-32.5 -51.5q10 3 21 3q25 0 41 -16t16 -40zM429 604q0 -31 -22 -51.5t-55 -20.5q-31 0 -50 19t-19 54q0 28 10.5 54t28.5 49t42 42t51 32l16 -35 q-26 -16 -47.5 -38.5t-32.5 -51.5q10 3 21 3q25 0 41 -16t16 -40z" />
<glyph unicode="&#x201d;" horiz-adv-x="411" d="M102 680q0 31 22 51.5t55 20.5q31 0 50 -19t19 -54q0 -28 -10.5 -54t-28.5 -49t-42 -42t-51 -32l-16 35q26 16 47.5 38.5t32.5 51.5q-11 -3 -21 -3q-25 0 -41 16t-16 40zM285 680q0 31 22 51.5t55 20.5q31 0 50 -19t19 -54q0 -28 -10.5 -54t-28.5 -49t-42 -42t-51 -32 l-16 35q26 16 47.5 38.5t32.5 51.5q-11 -3 -21 -3q-25 0 -41 16t-16 40z" />
<glyph unicode="&#x201e;" horiz-adv-x="411" d="M8 51q0 31 22 51.5t55 20.5q31 0 50 -19t19 -54q0 -28 -10.5 -54t-28.5 -49t-42 -42t-51 -32l-16 35q26 16 47.5 38.5t32.5 51.5q-11 -3 -21 -3q-25 0 -41 16t-16 40zM191 51q0 31 22 51.5t55 20.5q31 0 50 -19t19 -54q0 -28 -10.5 -54t-28.5 -49t-42 -42t-51 -32l-16 35 q26 16 47.5 38.5t32.5 51.5q-11 -3 -21 -3q-25 0 -41 16t-16 40z" />
<glyph unicode="&#x2022;" horiz-adv-x="450" d="M228 218q-29 0 -53 9.5t-40.5 26t-25.5 38t-9 44.5q0 39 12.5 68t33.5 48.5t48.5 29.5t57.5 10q29 0 53 -9.5t40.5 -26t25.5 -37.5t9 -45q0 -39 -12.5 -68t-33.5 -48.5t-48.5 -29.5t-57.5 -10z" />
<glyph unicode="&#x2039;" horiz-adv-x="369" d="M194 129l-124 194l7 42l187 194l55 -49l-174 -171l113 -161z" />
<glyph unicode="&#x203a;" horiz-adv-x="369" d="M195 559l124 -194l-7 -42l-187 -194l-55 49l174 171l-113 161z" />
<glyph unicode="&#x20ac;" d="M214 235q11 -81 56 -125t111 -44q48 0 80 12t64 29l18 -74q-29 -15 -70.5 -30t-103.5 -15q-51 0 -94.5 17.5t-75.5 50t-52.5 78t-25.5 101.5h-96l13 73h83q1 16 3 33t5 34h-79l13 73h83q17 55 46 103t70 84t94 56.5t118 20.5q54 0 94.5 -13t74.5 -32l-37 -76 q-27 20 -61.5 31.5t-74.5 11.5q-45 0 -81.5 -14.5t-65.5 -40t-50.5 -59t-34.5 -72.5h263l-13 -73h-267q-3 -17 -5 -33.5t-3 -33.5h243l-13 -73h-229z" />
<glyph unicode="&#x25fc;" horiz-adv-x="530" d="M0 530h530v-530h-530v530z" />
<glyph unicode="&#xf6c3;" horiz-adv-x="274" d="M234 -51q-19 -66 -58.5 -113.5t-95.5 -77.5l-40 24q42 43 70.5 87t50.5 101z" />
<glyph horiz-adv-x="309" d="M233 554l-193 110l52 76l177 -130z" />
<glyph horiz-adv-x="380" d="M94 577q-26 0 -40 16t-14 36q0 30 19 49t48 19q26 0 40 -16t14 -36q0 -30 -19 -49t-48 -19zM273 577q-26 0 -40 16t-14 36q0 30 19 49t48 19q26 0 40 -16t14 -36q0 -30 -19 -49t-48 -19z" />
<glyph horiz-adv-x="309" d="M40 610l177 130l52 -76l-193 -110z" />
<glyph horiz-adv-x="458" d="M84 572l-34 75l162 83h64l132 -96l-56 -62l-118 95z" />
<glyph horiz-adv-x="456" d="M50 656l45 71l123 -95l144 95l44 -71l-162 -87h-64z" />
<glyph horiz-adv-x="333" d="M160 574q25 0 40 19t15 46q0 23 -11 37t-31 14q-25 0 -40 -19t-15 -46q0 -23 11 -37t31 -14zM154 512q-50 0 -82 28t-32 76q0 29 10 54t28 43t43.5 28.5t57.5 10.5q50 0 82 -28t32 -76q0 -29 -10 -54t-28 -43t-44 -28.5t-57 -10.5z" />
<glyph horiz-adv-x="421" d="M371 626q-21 -18 -44.5 -32.5t-54.5 -14.5q-20 0 -34.5 5.5t-27.5 12t-26 12t-30 5.5q-23 0 -42.5 -10.5t-37.5 -25.5l-24 62q23 22 52.5 37t58.5 15q19 0 33.5 -5.5t27 -11.5t25.5 -11.5t31 -5.5q20 0 37 9.5t32 21.5z" />
<glyph horiz-adv-x="207" d="M97 574q-28 0 -42.5 16.5t-14.5 38.5q0 32 20 51.5t50 19.5q28 0 42.5 -16.5t14.5 -38.5q0 -32 -20 -51.5t-50 -19.5z" />
<glyph horiz-adv-x="864" d="M144 0v576h288v-288h288v-288h-576zM576 432v144h144v-144h-144z" />
</font>
</defs>
</svg>
