<?xml version="1.0" standalone="no"?>
<!DOCTYPE svg PUBLIC "-//W3C//DTD SVG 1.1//EN" "http://www.w3.org/Graphics/SVG/1.1/DTD/svg11.dtd" >
<svg>
<metadata>
Created by FontForge 20110222 at Wed Dec 23 11:24:23 2015
 By www-data
Copyright (c) 2012, Omnibus-Type (www.omnibus-type.com|omnibus.type@gmail.com),with Reserved Font Name: Archivo
</metadata>
<defs>
<font id="ArchivoNarrow-Bold" horiz-adv-x="934" >
  <font-face 
    font-family="Archivo Narrow"
    font-weight="700"
    font-stretch="normal"
    units-per-em="2048"
    panose-1="2 0 0 0 0 0 0 0 0 0"
    ascent="1638"
    descent="-410"
    x-height="1077"
    cap-height="1405"
    bbox="-340 -539 1966 1959"
    underline-thickness="50"
    underline-position="-50"
    unicode-range="U+000D-FB02"
  />
<missing-glyph horiz-adv-x="467" 
d="M1024 0h-1024v1434h1024v-1434zM164 102h696l-348 523zM102 195l349 522l-349 522v-1044zM573 717l349 -522v1044zM164 1331l348 -522l348 522h-696z" />
    <glyph glyph-name=".notdef" horiz-adv-x="467" 
d="M1024 0h-1024v1434h1024v-1434zM164 102h696l-348 523zM102 195l349 522l-349 522v-1044zM573 717l349 -522v1044zM164 1331l348 -522l348 522h-696z" />
    <glyph glyph-name="NULL" horiz-adv-x="0" 
 />
    <glyph glyph-name="nonmarkingreturn" unicode="&#xd;" horiz-adv-x="0" 
 />
    <glyph glyph-name="space" unicode=" " horiz-adv-x="467" 
 />
    <glyph glyph-name="exclam" unicode="!" horiz-adv-x="559" 
d="M362 403h-167l-72 1002h313zM422 0h-283v281h283v-281z" />
    <glyph glyph-name="quotedbl" unicode="&#x22;" horiz-adv-x="797" 
d="M713 1104l-43 -270h-162l-45 270v301h250v-301zM342 1104l-43 -270h-162l-45 270v301h250v-301z" />
    <glyph glyph-name="numbersign" unicode="#" 
d="M795 1032h127v-172h-166l-64 -289h150v-172h-189l-90 -399h-180l90 399h-154l-90 -399h-180l90 399h-129v172h168l64 289h-152v172h191l90 398h180l-90 -398h153l91 398h180zM422 860l-64 -289h154l63 289h-153z" />
    <glyph glyph-name="dollar" unicode="$" 
d="M518 1264q67 -6 125 -29t100.5 -60t66.5 -88t24 -114q0 -17 -1.5 -31t-1.5 -16h-225q0 62 -24 99t-64 52v-264q58 -15 119 -35t110.5 -55t81 -91.5t31.5 -144.5q0 -90 -25.5 -153t-71 -104t-108 -62t-137.5 -27v-241h-112v241q-81 7 -144 34.5t-106 71.5t-65.5 103.5
t-22.5 130.5v8q0 5 1 9q0 4 1 8h225v-14q0 -71 33 -110t78 -52v293q-57 16 -114.5 36t-103.5 54.5t-75 88t-29 136.5q0 74 24.5 131t67.5 97.5t102 64.5t128 31v219h112v-217zM518 326q22 5 43.5 15.5t37.5 26t26 38t10 51.5q0 50 -33 79.5t-84 49.5v-260zM406 1077
q-44 -14 -70.5 -44.5t-26.5 -74.5q0 -43 26.5 -68t70.5 -42v229z" />
    <glyph glyph-name="percent" unicode="%" horiz-adv-x="1493" 
d="M408 0h-175l857 1405h176zM354 1430q66 0 118.5 -18t89 -61t56 -114.5t19.5 -177.5q0 -107 -19.5 -178t-56 -113.5t-89 -60t-118.5 -17.5t-118.5 18t-88.5 60.5t-55.5 113.5t-19.5 177t19.5 177.5t55.5 114.5t88.5 61t118.5 18zM354 1280q-31 0 -50.5 -15t-30.5 -42
t-15 -65t-4 -83v-31q0 -45 4 -82.5t15 -64.5t30.5 -42t50.5 -15t50.5 15t30.5 42t15.5 64.5t4.5 82.5v31q0 45 -4.5 83t-15.5 65t-30.5 42t-50.5 15zM1141 715q66 0 118.5 -18t88.5 -60.5t55.5 -114t19.5 -178.5t-19.5 -178t-55.5 -113.5t-88.5 -60t-118.5 -17.5t-118.5 18
t-89 60.5t-56 113.5t-19.5 177q0 107 19.5 178.5t56 114t89 60.5t118.5 18zM1141 565q-31 0 -50.5 -15t-31 -42t-15.5 -65t-4 -83v-30q0 -45 4 -83t15.5 -65t31 -42t50.5 -15t50.5 15t30.5 42t15 65t4 83v30q0 45 -4 83t-15 65t-30.5 42t-50.5 15z" />
    <glyph glyph-name="ampersand" unicode="&#x26;" horiz-adv-x="1212" 
d="M571 1430q99 0 182 -27.5t142 -78t92 -121.5t33 -159v-57h-246v39q0 99 -52.5 148t-154.5 49q-99 0 -154 -50.5t-55 -138.5q0 -51 15 -91t41.5 -68t63.5 -43t81 -15h84v-207h-78q-47 0 -89.5 -10t-75 -34.5t-51.5 -67.5t-19 -109q0 -106 61 -156.5t164 -50.5
q111 0 165 54.5t54 154.5v426h408v-207h-162v-213q0 -96 -30.5 -174t-89.5 -133t-147 -85t-202 -30q-105 0 -192.5 27.5t-150.5 79.5t-98.5 126.5t-35.5 168.5q0 70 18 126t50 99t76 72.5t95 46.5v8q-45 22 -83.5 51t-67 67t-44.5 86.5t-16 110.5q0 94 34 166t95.5 121
t148 74t191.5 25z" />
    <glyph glyph-name="quotesingle" unicode="'" horiz-adv-x="399" 
d="M326 1104l-43 -270h-162l-45 270v301h250v-301z" />
    <glyph glyph-name="parenleft" unicode="(" horiz-adv-x="559" 
d="M528 1505q-51 -94 -95 -203t-76.5 -226.5t-51 -239.5t-18.5 -242t18.5 -243t51 -241.5t76.5 -228t95 -203.5h-161q-74 94 -131 201.5t-96 223t-59 238.5t-20 249t20 249.5t59 239.5t96 223.5t131 202.5h161z" />
    <glyph glyph-name="parenright" unicode=")" horiz-adv-x="559" 
d="M193 1505q73 -95 130 -202.5t96 -223.5t59 -239.5t20 -249.5t-20 -249t-59 -238.5t-96 -223t-130 -201.5h-162q51 94 95 203.5t76.5 228t51 241.5t18.5 243t-18.5 242t-51 239.5t-76.5 226.5t-95 203h162z" />
    <glyph glyph-name="asterisk" unicode="*" horiz-adv-x="653" 
d="M387 1198l172 119l80 -135l-190 -90l190 -86l-80 -140l-172 123l21 -209h-160l20 209l-172 -123l-80 140l191 86l-191 90l80 135l172 -121l-20 209h160z" />
    <glyph glyph-name="plus" unicode="+" horiz-adv-x="981" 
d="M594 629h317v-213h-317v-416h-211v416h-315v213h315v418h211v-418z" />
    <glyph glyph-name="comma" unicode="," horiz-adv-x="467" 
d="M375 25l-135 -344h-148l113 319h-113v281h283v-256z" />
    <glyph glyph-name="hyphen" unicode="-" horiz-adv-x="559" 
d="M526 432h-493v242h493v-242z" />
    <glyph glyph-name="period" unicode="." horiz-adv-x="467" 
d="M375 0h-283v281h283v-281z" />
    <glyph glyph-name="slash" unicode="/" horiz-adv-x="467" 
d="M178 -100h-176l291 1605h174z" />
    <glyph glyph-name="zero" unicode="0" 
d="M467 1430q94 0 169.5 -33.5t127.5 -116t80 -223.5t28 -355t-28 -354.5t-80 -223t-127.5 -116t-169.5 -33.5q-95 0 -170.5 33.5t-128 116t-80 223t-27.5 354.5t27.5 355t80 223.5t128 116t170.5 33.5zM467 1223q-47 0 -76 -27t-45.5 -82.5t-22.5 -140t-6 -199.5v-143
q0 -115 6 -199.5t22.5 -140t45.5 -82.5t76 -27t76 27t45.5 82.5t22 140t5.5 199.5v143q0 115 -5.5 199.5t-22 140t-45.5 82.5t-76 27z" />
    <glyph glyph-name="one" unicode="1" 
d="M643 207h289v-207h-850v207h315v876h-317v164q43 5 99 18.5t116 34.5t119 47.5t108 57.5h121v-1198z" />
    <glyph glyph-name="two" unicode="2" 
d="M489 1430q78 0 147 -21t120 -65t80.5 -113t29.5 -166q0 -93 -30.5 -179t-78 -165t-105 -149.5t-112 -132.5t-99.5 -115t-66 -95h497v-229h-804v49q0 82 23 154t61 136.5t86.5 123.5t99.5 115.5t99.5 113t86.5 116t61 123.5t23 136q0 25 -6 51.5t-20.5 49t-39.5 37
t-63 14.5t-65 -17.5t-44 -46.5t-24.5 -67.5t-7.5 -81.5v-84h-252q-2 10 -3 22q-3 21 -3 60q0 113 33 193.5t89.5 132.5t130.5 76t156 24z" />
    <glyph glyph-name="three" unicode="3" 
d="M461 1430q87 0 158 -25t122 -74t79 -121t28 -166q0 -62 -14 -110.5t-38 -86.5t-57.5 -67t-72.5 -51v-8q44 -17 82 -46.5t65.5 -72.5t43 -99t15.5 -126q0 -94 -30 -168.5t-83.5 -126.5t-128 -79.5t-163.5 -27.5q-101 0 -178.5 30t-130 85t-80 133t-27.5 174v37h256v-43
q0 -100 39 -154.5t117 -54.5q69 0 111 50.5t42 156.5q0 66 -13.5 109t-37 67.5t-53.5 34.5t-63 10h-68v207h72q29 0 54.5 13.5t44 40.5t29.5 68t11 95q0 99 -34.5 144t-94.5 45q-63 0 -97 -49t-34 -148v-39h-256v57q0 88 28.5 159t79.5 121.5t122 78t155 27.5z" />
    <glyph glyph-name="four" unicode="4" 
d="M616 1430q-19 -91 -50 -186t-67.5 -186.5t-76 -176t-76 -154.5t-67.5 -122.5t-50 -80.5h293v316q20 40 40 89t38.5 100.5t33.5 101t25 90.5h109v-697h143v-207h-143v-317h-246v317h-506v197q55 97 106 208.5t96 230t83.5 239.5t69.5 238h245z" />
    <glyph glyph-name="five" unicode="5" 
d="M827 1176h-462l-21 -332q31 25 79 47t122 22q71 0 133.5 -27.5t109 -83.5t73 -141.5t26.5 -201.5t-28.5 -206t-82 -152t-130 -94t-171.5 -32q-94 0 -170.5 32t-130.5 91.5t-83.5 145t-29.5 192.5h256q0 -58 10.5 -105.5t31 -81t49.5 -51.5t67 -18q35 0 64 17.5t50 52.5
t32.5 87.5t11.5 121.5q0 61 -11 108.5t-30.5 80t-45.5 49t-57 16.5q-56 0 -92 -34t-59 -85l-238 33l47 778h680v-229z" />
    <glyph glyph-name="six" unicode="6" 
d="M467 1430q97 0 167 -35t115 -96t66 -145t21 -181h-252q0 118 -27.5 184t-97.5 66q-48 0 -75.5 -32t-42.5 -90.5t-20 -142t-6 -186.5q35 53 92 82t125 29q85 0 149 -34t106.5 -95t63.5 -144t21 -180q0 -105 -29 -189t-80.5 -143.5t-122.5 -91t-155 -31.5q-99 0 -177.5 34
t-133.5 114t-84 212t-29 327q0 219 27.5 366.5t80 237t128 127t170.5 37.5zM475 682q-37 0 -64 -18.5t-45 -51.5t-27 -79.5t-9 -102.5q0 -53 9 -98.5t27 -78.5t45 -52t64 -19t64 19t44.5 52t26 78.5t8.5 98.5q0 56 -8.5 102.5t-26 79.5t-44.5 51.5t-64 18.5z" />
    <glyph glyph-name="seven" unicode="7" 
d="M887 1239q-46 -70 -95 -151t-95 -171t-86.5 -188t-71 -201t-48.5 -209.5t-18 -214.5v-48q0 -11 0.5 -24.5t1.5 -31.5h-272q0 169 35 334t93.5 316.5t133.5 285t156 240.5h-574v229h840v-166z" />
    <glyph glyph-name="eight" unicode="8" 
d="M467 1430q94 0 164.5 -31t117.5 -84.5t71 -124.5t24 -152q0 -100 -38 -183t-116 -134q97 -48 139.5 -134.5t42.5 -201.5q0 -84 -23 -159t-72 -130.5t-125.5 -88t-184.5 -32.5t-184.5 32.5t-126 88t-72.5 130.5t-23 159q0 114 43 201t138 135q-78 51 -115 134t-37 183
q0 81 23.5 152t71 124.5t118 84.5t164.5 31zM467 616q-74 0 -113 -56t-39 -163q0 -106 39 -161.5t113 -55.5t112.5 55.5t38.5 161.5q0 107 -38.5 163t-112.5 56zM467 1225q-62 0 -94.5 -51.5t-32.5 -151.5t32.5 -151.5t94.5 -51.5t95.5 51.5t33.5 151.5t-33.5 151.5
t-95.5 51.5z" />
    <glyph glyph-name="nine" unicode="9" 
d="M449 1430q99 0 177.5 -34t133 -114t83.5 -212t29 -327q0 -219 -27.5 -366.5t-79.5 -237t-127.5 -127t-170.5 -37.5q-98 0 -167.5 35t-114.5 96t-66 144.5t-21 181.5h252q0 -59 6.5 -105.5t21 -78.5t38.5 -49t59 -17q48 0 75.5 32t42 90.5t19 142t6.5 186.5
q-35 -53 -91.5 -82t-125.5 -29q-85 0 -149 34t-106.5 95t-63.5 143.5t-21 180.5q0 105 29 189t81 143.5t123 91t155 31.5zM459 1223q-37 0 -64 -19t-45 -52t-26.5 -78.5t-8.5 -98.5q0 -56 8.5 -102.5t26.5 -79.5t45 -51.5t64 -18.5t64 18.5t45 51.5t27 79.5t9 102.5
q0 53 -9 98.5t-27 78.5t-45 52t-64 19z" />
    <glyph glyph-name="colon" unicode=":" horiz-adv-x="559" 
d="M395 0h-282v281h282v-281zM395 797h-282v280h282v-280z" />
    <glyph glyph-name="semicolon" unicode=";" horiz-adv-x="559" 
d="M393 25l-135 -344h-147l112 319h-112v281h282v-256zM395 797h-282v280h282v-280z" />
    <glyph glyph-name="less" unicode="&#x3c;" horiz-adv-x="981" 
d="M913 846l-637 -311l637 -312v-241l-843 421v261l843 423v-241z" />
    <glyph glyph-name="equal" unicode="=" horiz-adv-x="981" 
d="M911 631h-843v213h843v-213zM911 197h-843v211h843v-211z" />
    <glyph glyph-name="greater" unicode="&#x3e;" horiz-adv-x="981" 
d="M913 664v-261l-843 -421v241l637 312l-637 311v241z" />
    <glyph glyph-name="question" unicode="?" horiz-adv-x="1026" 
d="M532 1430q91 0 164.5 -27t125 -75t79 -115t27.5 -148q0 -91 -19 -154.5t-47.5 -110.5t-61.5 -83.5t-61.5 -73.5t-47.5 -79.5t-19 -102.5v-58h-258v89q0 61 18 107.5t45.5 85.5t59 75t59 76.5t45.5 90t18 115.5q0 15 -4.5 43.5t-19.5 56t-43 48t-76 20.5q-51 0 -82.5 -23
t-48 -56t-22 -70.5t-5.5 -65.5v-22q0 -10 1 -18q0 -9 1 -15h-258q-2 14 -3 27q-2 11 -2.5 23t-0.5 22q0 86 27 162t81.5 133t136 90t191.5 33zM686 0h-283v281h283v-281z" />
    <glyph glyph-name="at" unicode="@" horiz-adv-x="1638" 
d="M844 1430q160 0 296.5 -43.5t236.5 -137t156 -240t56 -352.5q0 -116 -18.5 -206.5t-49.5 -158.5t-72 -115t-86 -76.5t-92 -42.5t-89 -13q-51 0 -86 9.5t-59.5 26.5t-40.5 40.5t-27 52.5h-11q-21 -30 -43.5 -54t-51 -40.5t-65.5 -25.5t-85 -9q-35 0 -77.5 11t-80 41.5
t-63 84t-25.5 137.5q0 99 36 165t100 105.5t153 56t196 16.5v102q0 25 -4 47t-15 38.5t-31 26t-52 9.5q-35 0 -57.5 -9.5t-35.5 -24.5t-18.5 -33t-5.5 -36v-26h-217q-2 8 -2 17v24q0 60 23.5 110t66.5 85.5t104 55t136 19.5q170 0 252 -76t82 -213v-467q0 -42 16 -60t45 -18
q35 0 71 21.5t65 71t47 131.5t18 202q0 167 -44 286t-123 195.5t-189 112t-242 35.5q-149 0 -267.5 -46.5t-201.5 -140t-127.5 -235t-44.5 -331.5q0 -352 140.5 -529.5t436.5 -177.5q34 0 79.5 5t92 14t88 21t68.5 26v-152q-32 -12 -75 -22.5t-88.5 -17.5t-89 -11t-75.5 -4
q-168 0 -302.5 49.5t-229 153.5t-145 264.5t-50.5 382.5q0 163 29 293t81.5 229t125.5 169.5t161 115t188.5 65.5t207.5 21zM952 500q-49 0 -95 -7t-82 -25t-57.5 -49t-21.5 -79q0 -50 26 -79.5t83 -29.5q40 0 68 17t45.5 46.5t25.5 68t8 81.5v56z" />
    <glyph glyph-name="A" unicode="A" horiz-adv-x="1212" 
d="M1210 0h-268l-86 276h-518l-84 -276h-254l453 1405h305zM594 1169q-6 -37 -13 -71q-6 -29 -13 -62t-15 -57l-143 -469h374l-141 469q-8 28 -16 61t-13 62q-7 33 -12 67h-8z" />
    <glyph glyph-name="B" unicode="B" horiz-adv-x="1212" 
d="M123 1405h604q83 0 153 -25.5t121 -71t80 -109.5t29 -142q0 -61 -16.5 -112.5t-45.5 -92t-68.5 -70t-84.5 -45.5v-8q52 -16 97.5 -48t79 -77t52.5 -102.5t19 -124.5q0 -89 -33.5 -158.5t-90.5 -118.5t-132.5 -74.5t-159.5 -25.5h-604v1405zM385 604v-371h299
q41 0 75.5 11.5t60 34t40 55.5t14.5 76q0 40 -12.5 75.5t-37.5 62t-63 41.5t-89 15h-287zM385 1171v-335h270q47 0 82 14t58.5 37.5t35 55t11.5 67.5q0 80 -48 120.5t-126 40.5h-283z" />
    <glyph glyph-name="C" unicode="C" horiz-adv-x="1212" 
d="M629 1430q110 0 204.5 -32t163.5 -98.5t108.5 -170t39.5 -246.5h-268q0 81 -18 141.5t-51 100.5t-78.5 59.5t-100.5 19.5q-73 0 -127.5 -31t-90.5 -89t-53.5 -141.5t-17.5 -188.5v-103q0 -105 18 -188.5t55 -141.5t93 -89t131 -31q57 0 103.5 19.5t79.5 59t51 99.5
t18 141h256q0 -138 -39 -240.5t-108 -170t-163.5 -101t-205.5 -33.5q-132 0 -236 44t-176 134t-109.5 226.5t-37.5 322.5t37.5 323t109.5 227t176 134t236 44z" />
    <glyph glyph-name="D" unicode="D" horiz-adv-x="1212" 
d="M123 0v1405h457q131 0 235.5 -43t177 -128.5t111.5 -213t39 -297.5q0 -180 -39 -315.5t-111.5 -226t-177 -136t-235.5 -45.5h-457zM385 1171v-938h170q73 0 131.5 27.5t100 82t63.5 137t22 192.5v102q0 99 -22 173.5t-63.5 124t-100 74.5t-131.5 25h-170z" />
    <glyph glyph-name="E" unicode="E" horiz-adv-x="1120" 
d="M123 0v1405h895v-234h-633v-335h543v-234h-543v-369h645v-233h-907z" />
    <glyph glyph-name="F" unicode="F" horiz-adv-x="1026" 
d="M123 0v1405h825v-234h-563v-354h481v-233h-481v-584h-262z" />
    <glyph glyph-name="G" unicode="G" horiz-adv-x="1307" 
d="M666 1430q106 0 203 -33.5t171 -99t118 -162t44 -222.5h-268q0 72 -22 126t-59.5 91t-88 55.5t-107.5 18.5q-82 0 -142 -31t-99 -89t-57.5 -141.5t-18.5 -188.5v-103q0 -107 19 -191t58.5 -141.5t99.5 -87.5t142 -30q60 0 110.5 24t87 68t57 106.5t20.5 139.5h-316v225
h584v-764h-170l-45 156q-68 -90 -165.5 -135.5t-209.5 -45.5q-129 0 -230 43.5t-170 133t-105.5 226.5t-36.5 324q0 186 40 323t116 227t187 134t253 44z" />
    <glyph glyph-name="H" unicode="H" horiz-adv-x="1212" 
d="M827 602h-442v-602h-262v1405h262v-569h442v569h263v-1405h-263v602z" />
    <glyph glyph-name="I" unicode="I" horiz-adv-x="467" 
d="M365 0h-263v1405h263v-1405z" />
    <glyph glyph-name="J" unicode="J" 
d="M279 442v-88q0 -74 34.5 -113.5t102.5 -39.5q66 0 99.5 39.5t33.5 113.5v1051h262v-1071q0 -177 -101.5 -268t-293.5 -91q-191 0 -294.5 91.5t-103.5 267.5v108h261z" />
    <glyph glyph-name="K" unicode="K" horiz-adv-x="1212" 
d="M387 686l514 719h293l-416 -571l428 -834h-295l-305 627l-219 -269v-358h-264v1405h264v-719z" />
    <glyph glyph-name="L" unicode="L" horiz-adv-x="1026" 
d="M123 1405h262v-1159h594v-246h-856v1405z" />
    <glyph glyph-name="M" unicode="M" horiz-adv-x="1399" 
d="M1049 0v895q0 23 1.5 61.5t3.5 74.5q2 42 5 89h-8l-246 -1120h-227l-248 1120h-8q2 -49 5 -92q1 -18 1.5 -37.5t1.5 -37.5t1.5 -33t0.5 -25v-895h-223v1405h368l174 -774q4 -17 8.5 -40t9 -48.5t9.5 -53t9 -52.5q10 -60 20 -124h8q8 67 16 128q3 26 7 53t8 52.5t8 47.5
t8 37l172 774h356v-1405h-241z" />
    <glyph glyph-name="N" unicode="N" horiz-adv-x="1212" 
d="M856 0l-434 774q-6 11 -16.5 32.5t-21.5 43.5q-12 26 -26 55l-8 -6q1 -23 2 -45q1 -19 1.5 -38.5t0.5 -33.5v-782h-231v1405h231l434 -774q8 -14 19.5 -36t21.5 -43q11 -25 23 -52l6 6q-1 27 -1 50q-1 20 -1 39v28v782h234v-1405h-234z" />
    <glyph glyph-name="O" unicode="O" horiz-adv-x="1307" 
d="M653 1430q136 0 244.5 -44t184 -134t115.5 -227t40 -323t-40 -322.5t-115.5 -226.5t-184 -134t-244.5 -44t-244 44t-183.5 134t-115.5 226.5t-40 322.5t40 323t115.5 227t183.5 134t244 44zM653 1204q-78 0 -137 -31t-98 -89t-58.5 -141.5t-19.5 -188.5v-103
q0 -105 19.5 -188.5t58.5 -141.5t98 -89t137 -31t137 31t98.5 89t59 141.5t19.5 188.5v103q0 105 -19.5 188.5t-59 141.5t-98.5 89t-137 31z" />
    <glyph glyph-name="P" unicode="P" horiz-adv-x="1120" 
d="M385 545v-545h-262v1405h502q109 0 191 -31.5t137.5 -88t83.5 -134t28 -168.5q0 -99 -31.5 -180t-89.5 -138t-139 -88.5t-180 -31.5h-240zM385 1171v-395h213q96 0 146.5 55t50.5 152q0 87 -51.5 137.5t-145.5 50.5h-213z" />
    <glyph glyph-name="Q" unicode="Q" horiz-adv-x="1307" 
d="M70 702q0 186 40 323t115.5 227t183.5 134t244 44t244.5 -44t184 -134t115.5 -227t40 -323q0 -264 -80.5 -429t-224.5 -238l270 -289h-321l-203 229h-25q-136 0 -244 44t-183.5 134t-115.5 226.5t-40 322.5zM340 651q0 -105 19.5 -188.5t58.5 -141.5t98 -89t137 -31
t137 31t98.5 89t59 141.5t19.5 188.5v103q0 105 -19.5 188.5t-59 141.5t-98.5 89t-137 31t-137 -31t-98 -89t-58.5 -141.5t-19.5 -188.5v-103z" />
    <glyph glyph-name="R" unicode="R" horiz-adv-x="1212" 
d="M385 586v-586h-262v1405h588q106 0 186.5 -30t134.5 -83.5t81.5 -127t27.5 -160.5q0 -64 -16.5 -120t-47 -102t-74 -81.5t-98.5 -57.5l271 -643h-285l-234 586h-272zM385 1171v-354h289q96 0 140 49.5t44 137.5q0 77 -41.5 122t-132.5 45h-299z" />
    <glyph glyph-name="S" unicode="S" horiz-adv-x="1120" 
d="M559 1430q94 0 177 -24t145 -74.5t98.5 -129t36.5 -186.5v-25h-268v19q0 89 -50.5 141.5t-140.5 52.5q-96 0 -146.5 -42t-50.5 -107q0 -53 29.5 -87.5t77.5 -59t109 -43t125 -40.5t125 -51.5t109 -75t77.5 -112.5t29.5 -164q0 -121 -36.5 -206t-102 -138.5t-156.5 -78
t-200 -24.5q-97 0 -185 27.5t-155 82.5t-106.5 137t-39.5 190q0 12 1 24.5t1 20.5h273q0 -3 -1 -14t-1 -19q0 -50 15 -91t44 -70.5t70.5 -45.5t95.5 -16q59 0 100 14.5t66 38t36 53t11 60.5q0 50 -19 85.5t-52 61t-76.5 44t-92.5 35t-101 33.5t-101 39.5t-92.5 53.5
t-76.5 74.5t-52 103t-19 139.5q0 100 38.5 174t103 123t149.5 73t178 24z" />
    <glyph glyph-name="T" unicode="T" horiz-adv-x="1026" 
d="M993 1171h-348v-1171h-262v1171h-348v234h958v-234z" />
    <glyph glyph-name="U" unicode="U" horiz-adv-x="1212" 
d="M125 1405h262v-956q0 -122 57 -185t162 -63t163 63t58 185v956h263v-965q0 -114 -33.5 -201t-96 -145.5t-152 -88.5t-202.5 -30t-202 30t-151 88.5t-95 145.5t-33 201v965z" />
    <glyph glyph-name="V" unicode="V" horiz-adv-x="1120" 
d="M692 0h-264l-428 1405h270l295 -1006h8l291 1006h256z" />
    <glyph glyph-name="W" unicode="W" horiz-adv-x="1585" 
d="M1278 0h-264l-191 895q-6 27 -11 61t-9 65q-4 36 -8 73h-9q-6 -40 -10 -77q-5 -32 -9 -66t-9 -56l-189 -895h-264l-305 1405h260l168 -864q5 -23 9.5 -57t8.5 -65q4 -37 9 -75h8q4 39 8 76q4 32 8.5 65t9.5 56l170 864h297l168 -864q4 -21 9 -54.5t9 -65.5q4 -37 9 -77h8
l8 72q4 30 8.5 64.5t10.5 60.5l172 864h225z" />
    <glyph glyph-name="X" unicode="X" horiz-adv-x="1120" 
d="M719 741l399 -741h-291l-274 530h-8l-273 -530h-272l397 737l-360 668h293l235 -459h8l236 459h272z" />
    <glyph glyph-name="Y" unicode="Y" horiz-adv-x="1120" 
d="M692 530v-530h-262v530l-430 875h276l287 -617h8l285 617h264z" />
    <glyph glyph-name="Z" unicode="Z" horiz-adv-x="1026" 
d="M969 1303l-578 -1070h592v-233h-950v100l577 1071h-534v234h893v-102z" />
    <glyph glyph-name="bracketleft" unicode="[" horiz-adv-x="559" 
d="M508 1311h-170v-1446h170v-195h-408v1835h408v-194z" />
    <glyph glyph-name="backslash" unicode="\" horiz-adv-x="467" 
d="M467 -100h-176l-289 1605h174z" />
    <glyph glyph-name="bracketright" unicode="]" horiz-adv-x="559" 
d="M459 -330h-408v195h170v1446h-170v194h408v-1835z" />
    <glyph glyph-name="asciicircum" unicode="^" horiz-adv-x="981" 
d="M926 602h-226l-206 553l-203 -553h-225l319 803h219z" />
    <glyph glyph-name="underscore" unicode="_" 
d="M932 -270h-932v141h932v-141z" />
    <glyph glyph-name="grave" unicode="`" horiz-adv-x="559" 
d="M467 1210h-203l-221 265l2 6h246z" />
    <glyph glyph-name="a" unicode="a" 
d="M444 1102q187 0 277 -83.5t90 -234.5v-530q0 -38 18 -55t39 -17h50v-174q-20 -11 -55 -22t-91 -11q-74 0 -123 39.5t-67 102.5h-11q-23 -32 -48 -58.5t-57 -45t-72.5 -28.5t-94.5 -10q-38 0 -84.5 12.5t-88 46t-69.5 92.5t-28 153q0 109 39.5 181t110 115.5t169 61.5
t215.5 18v113q0 28 -4.5 52t-16.5 42t-34 28.5t-57 10.5q-38 0 -63 -10.5t-39.5 -26.5t-20.5 -36.5t-6 -39.5v-30h-240q-2 9 -2 20v25q0 67 26 122.5t73.5 94.5t114.5 60.5t150 21.5zM563 477q-54 0 -104.5 -8t-90 -28t-63.5 -54t-24 -86q0 -56 28.5 -88.5t91.5 -32.5
q44 0 74.5 19t50 51.5t28.5 75t9 90.5v61z" />
    <glyph glyph-name="b" unicode="b" horiz-adv-x="1026" 
d="M342 133l-25 -133h-204v1481h245v-514h11q29 65 93.5 100t145.5 35q72 0 133 -32.5t105.5 -101t70 -174.5t25.5 -253t-24 -253.5t-69 -176t-109 -103t-144 -33.5q-77 0 -140 40t-104 118h-10zM358 500q0 -146 37.5 -223.5t126.5 -77.5t126.5 77.5t37.5 223.5v78
q0 145 -37.5 223t-126.5 78q-45 0 -76 -20.5t-50.5 -59.5t-28.5 -96t-9 -130v-73z" />
    <glyph glyph-name="c" unicode="c" 
d="M483 1102q86 0 156 -25t119 -77.5t75.5 -133.5t26.5 -194h-252q0 114 -31 168.5t-94 54.5q-78 0 -110.5 -81t-32.5 -236v-78q0 -155 34.5 -236.5t117.5 -81.5q66 0 95 56t29 168h244q0 -113 -26 -194.5t-74 -134t-116 -77.5t-152 -25q-105 0 -182 33.5t-127.5 103
t-74.5 176t-24 251.5q0 290 99.5 426.5t299.5 136.5z" />
    <glyph glyph-name="d" unicode="d" horiz-adv-x="1026" 
d="M913 0h-204l-25 133h-10q-40 -78 -103.5 -118t-140.5 -40q-80 0 -144 33.5t-109 103t-69 176t-24 253.5t25.5 253t70 174.5t105.5 101t133 32.5q81 0 145.5 -35t93.5 -100h11v514h245v-1481zM504 879q-89 0 -126.5 -78t-37.5 -223v-78q0 -146 37.5 -223.5t126.5 -77.5
t126.5 77.5t37.5 223.5v73q0 73 -9 130t-28.5 96t-50.5 59.5t-76 20.5z" />
    <glyph glyph-name="e" unicode="e" 
d="M477 1102q195 0 292 -136.5t97 -426.5v-62h-547q1 -72 10.5 -128t29 -94.5t50.5 -58.5t76 -20q63 0 100.5 54t37.5 151h243q0 -104 -28.5 -180.5t-79.5 -126.5t-121 -74.5t-152 -24.5q-207 0 -314.5 137t-107.5 427t107 426.5t307 136.5zM477 901q-78 0 -113.5 -64
t-41.5 -182h286q0 118 -31.5 182t-99.5 64z" />
    <glyph glyph-name="f" unicode="f" horiz-adv-x="559" 
d="M381 1497q21 0 46 -2t49 -5.5t46 -8t37 -8.5v-183h-100q-86 0 -86 -88v-125h186v-207h-186v-870h-246v870h-109v207h109v131q0 54 12 106t41 92.5t78 65.5t123 25z" />
    <glyph glyph-name="g" unicode="g" horiz-adv-x="1026" 
d="M995 1257q0 -115 -46 -182t-128 -92q42 -46 64 -109t22 -139q0 -83 -26 -150.5t-76 -115.5t-125 -74t-172 -26h-102q-33 0 -53.5 -19t-20.5 -47t17.5 -45.5t45.5 -17.5h373q51 0 95.5 -19.5t78 -56.5t53 -89t19.5 -116q0 -75 -27.5 -136.5t-74.5 -105t-110.5 -67
t-135.5 -23.5h-396q-49 0 -92 18t-75.5 51t-51 78.5t-18.5 100.5q0 80 39 133.5t98 85.5q-40 25 -63 65.5t-23 96.5q0 35 12.5 64.5t34 53.5t50.5 41.5t61 28.5q-65 48 -98 121.5t-33 169.5q0 83 25.5 150.5t76 115.5t124.5 74.5t171 26.5q51 0 96.5 -7.5t83.5 -23.5
q31 22 51 48.5t32 52.5t17 48.5t5 36.5h202zM379 12q-21 0 -38.5 -8t-31 -21.5t-21 -31t-7.5 -37.5q0 -46 28 -73t70 -27h276q47 0 79 27t32 73t-29 72t-71 26h-287zM508 920q-75 0 -113.5 -49t-38.5 -136q0 -86 38.5 -135t113.5 -49q77 0 115.5 49t38.5 135q0 87 -38.5 136
t-115.5 49z" />
    <glyph glyph-name="h" unicode="h" horiz-adv-x="1026" 
d="M358 963h9q18 25 43 50t57 44.5t72 32t88 12.5q62 0 114.5 -18.5t90.5 -59.5t59.5 -107t21.5 -161v-756h-245v688q0 104 -38 147.5t-104 43.5q-36 0 -67 -16.5t-53.5 -46t-35 -68.5t-12.5 -84v-664h-245v1481h245v-518z" />
    <glyph glyph-name="i" unicode="i" horiz-adv-x="467" 
d="M356 0h-245v1077h245v-1077zM356 1257h-245v224h245v-224z" />
    <glyph glyph-name="j" unicode="j" horiz-adv-x="467" 
d="M356 -84q0 -54 -11.5 -105.5t-40 -92.5t-76.5 -66t-122 -25q-23 0 -48 2t-49.5 6t-46.5 8t-38 9v182h90q48 0 72.5 25t24.5 73v1145h245v-1161zM356 1257h-245v224h245v-224z" />
    <glyph glyph-name="k" unicode="k" 
d="M356 649l301 428h263l-320 -438l336 -639h-272l-218 446l-90 -110v-336h-245v1481h245v-832z" />
    <glyph glyph-name="l" unicode="l" horiz-adv-x="467" 
d="M356 0h-245v1481h245v-1481z" />
    <glyph glyph-name="m" unicode="m" horiz-adv-x="1493" 
d="M1120 1102q58 0 106.5 -17.5t84 -58t55.5 -107t20 -163.5v-756h-245v688q0 104 -30 147.5t-91 43.5q-30 0 -57 -14.5t-48 -40.5t-33 -62.5t-12 -81.5v-680h-241v688q0 104 -31 147.5t-92 43.5q-32 0 -59 -15.5t-46.5 -44t-31 -68t-11.5 -87.5v-664h-245v1077h204l25 -133
h12q19 31 45 60t58 50.5t70.5 34.5t82.5 13q81 0 140.5 -36.5t91.5 -121.5q21 31 48.5 60t62.5 50.5t77 34.5t90 13z" />
    <glyph glyph-name="n" unicode="n" horiz-adv-x="1026" 
d="M627 1102q62 0 114.5 -18.5t90.5 -59.5t59.5 -107t21.5 -161v-756h-245v688q0 104 -38 147.5t-104 43.5q-36 0 -67 -16.5t-53.5 -46t-35 -68.5t-12.5 -84v-664h-245v1077h204l25 -133h12q21 31 48 60t61 50.5t75 34.5t89 13z" />
    <glyph glyph-name="o" unicode="o" horiz-adv-x="1026" 
d="M514 1102q215 0 322.5 -136.5t107.5 -426.5t-107.5 -427t-322.5 -137t-322.5 137t-107.5 427t107.5 426.5t322.5 136.5zM514 895q-95 0 -134.5 -81.5t-39.5 -235.5v-78q0 -155 39.5 -236.5t134.5 -81.5t134.5 81.5t39.5 236.5v78q0 154 -39.5 235.5t-134.5 81.5z" />
    <glyph glyph-name="p" unicode="p" horiz-adv-x="1026" 
d="M596 1102q80 0 144 -33.5t109 -102.5t69 -175.5t24 -253.5t-25.5 -253t-70 -175t-105.5 -101.5t-133 -32.5q-81 0 -145.5 35.5t-93.5 100.5h-11v-465h-245v1431h204l25 -133h10q41 79 104 118.5t140 39.5zM522 879q-89 0 -126.5 -78t-37.5 -223v-74q0 -146 37.5 -225.5
t126.5 -79.5t126.5 77.5t37.5 223.5v78q0 145 -37.5 223t-126.5 78z" />
    <glyph glyph-name="q" unicode="q" horiz-adv-x="1026" 
d="M684 944l25 133h204v-1431h-245v465h-11q-29 -65 -93.5 -100.5t-145.5 -35.5q-72 0 -133 32.5t-105.5 101.5t-70 175t-25.5 253t24 253.5t69 175.5t109 102.5t144 33.5q77 0 140.5 -39.5t103.5 -118.5h10zM668 578q0 145 -37.5 223t-126.5 78t-126.5 -78t-37.5 -223v-78
q0 -146 37.5 -223.5t126.5 -77.5t126.5 79.5t37.5 225.5v74z" />
    <glyph glyph-name="r" unicode="r" horiz-adv-x="653" 
d="M545 1102q23 0 42 -3t33 -6q16 -4 27 -8v-237h-88q-40 0 -76.5 -12t-64 -40.5t-44 -76t-16.5 -119.5v-600h-245v1077h204l29 -157h12q11 34 26 66.5t37.5 58t52.5 41.5t71 16z" />
    <glyph glyph-name="s" unicode="s" 
d="M469 1102q77 0 143.5 -20t116 -57.5t77.5 -92t28 -123.5q0 -17 -1.5 -31t-1.5 -16h-249q0 72 -32.5 105.5t-88.5 33.5q-57 0 -92 -28.5t-35 -77.5q0 -39 22.5 -62.5t59.5 -39t84.5 -27t96.5 -26t96.5 -35.5t84.5 -57t59.5 -90t22.5 -134q0 -99 -30.5 -165.5t-84 -107.5
t-127 -58.5t-159.5 -17.5q-93 0 -165.5 24.5t-123 69.5t-76.5 108t-26 140v8q0 5 1 9q0 4 1 8h249v-14q1 -43 14.5 -72t34.5 -47t47 -25.5t52 -7.5q24 0 49.5 6t46.5 19.5t34 36t13 55.5q0 43 -22.5 69t-59.5 43.5t-84.5 30t-96.5 27.5t-96.5 36t-84.5 56t-59.5 88
t-22.5 131q0 82 30 143.5t82 102.5t122 61.5t151 20.5z" />
    <glyph glyph-name="t" unicode="t" horiz-adv-x="559" 
d="M373 1077h155v-207h-155v-600q0 -88 86 -88h69v-182q-13 -5 -31 -9t-38 -8t-40 -6t-38 -2q-74 0 -123 25t-78 66t-41 92.5t-12 105.5v606h-109v207h109l37 303h209v-303z" />
    <glyph glyph-name="u" unicode="u" horiz-adv-x="1026" 
d="M913 0h-204l-25 133h-12q-21 -32 -48 -60.5t-61 -50t-75 -34.5t-89 -13q-62 0 -114.5 18.5t-90.5 59.5t-59.5 107.5t-21.5 161.5v755h245v-688q0 -104 36.5 -147t105.5 -43q36 0 66.5 16t53 44t35.5 67t13 84v667h245v-1077z" />
    <glyph glyph-name="v" unicode="v" 
d="M592 0h-250l-334 1077h258l140 -463q4 -15 9.5 -37.5t11 -48t11 -53t10.5 -53.5q12 -62 25 -131h8q9 65 20 126q4 26 9.5 53.5t10.5 53.5t10.5 49t11.5 41l137 463h246z" />
    <glyph glyph-name="w" unicode="w" horiz-adv-x="1307" 
d="M1044 0h-247l-107 514q-8 41 -14 87.5t-10 86.5q-4 47 -7 92h-12q-3 -44 -7 -90q-4 -39 -10 -85.5t-14 -88.5l-104 -516h-248l-262 1077h246l102 -442q12 -55 20.5 -114.5t13.5 -109.5q6 -58 9 -114h8q4 53 11 110q5 49 14 108.5t20 117.5l93 444h245l93 -446
q8 -40 16 -96.5t15 -109.5q7 -62 14 -128h8q8 62 17 122q8 51 17 108.5t19 103.5l94 446h228z" />
    <glyph glyph-name="x" unicode="x" 
d="M616 563l308 -563h-277l-182 356h-10q-45 -88 -90.5 -178t-92.5 -178h-262l312 557l-287 520h278q39 -77 78.5 -157.5t81.5 -155.5h10q41 75 81.5 155.5t78.5 157.5h264z" />
    <glyph glyph-name="y" unicode="y" 
d="M631 55q-26 -87 -59.5 -165t-79 -136.5t-105 -92.5t-137.5 -34q-74 0 -117 8.5t-43 10.5v188h111q52 0 98 38.5t68 127.5l-359 1077h260l162 -506q10 -31 20.5 -78.5t18.5 -92.5q10 -53 18 -109h9q7 53 16 104q8 44 16.5 91.5t18.5 82.5l133 508h246z" />
    <glyph glyph-name="z" unicode="z" horiz-adv-x="840" 
d="M788 975l-419 -768h434v-207h-766v104l418 766h-394v207h727v-102z" />
    <glyph glyph-name="braceleft" unicode="{" horiz-adv-x="653" 
d="M610 1348q-27 0 -55.5 -5t-52 -18.5t-38.5 -38t-15 -63.5q0 -103 -6 -201t-9 -201q-2 -52 -14 -93t-38 -69.5t-67.5 -43.5t-101.5 -15v-20q60 0 101 -15t67 -43.5t38.5 -70t14.5 -93.5q3 -103 9 -201t6 -200q0 -39 15 -63.5t38 -38t52 -18.5t56 -5v-158q-79 0 -152 11
t-128.5 43.5t-89 92t-33.5 156.5v396q0 34 -14.5 58t-37 38t-50.5 20.5t-56 6.5v188q28 0 56 6.5t50.5 20.5t37 37.5t14.5 58.5v395q0 97 33.5 156.5t89 92t128.5 43.5t152 11v-157z" />
    <glyph glyph-name="bar" unicode="|" horiz-adv-x="471" 
d="M328 -354h-185v1835h185v-1835z" />
    <glyph glyph-name="braceright" unicode="}" horiz-adv-x="653" 
d="M43 1505q79 0 152 -11t128.5 -43.5t89 -92t33.5 -156.5v-395q0 -35 14.5 -58.5t37 -37.5t50.5 -20.5t56 -6.5v-188q-28 0 -56 -6.5t-50.5 -20.5t-37 -38t-14.5 -58v-396q0 -97 -33.5 -156.5t-89 -92t-128.5 -43.5t-152 -11v158q28 0 56.5 5t52 18.5t38.5 38t15 63.5
q0 102 5.5 200t8.5 201q2 52 14.5 93.5t38.5 70t67 43.5t101 15v20q-60 0 -101 15t-67.5 43.5t-39 69.5t-13.5 93q-3 103 -8.5 201t-5.5 201q0 39 -15 63.5t-39 38t-52.5 18.5t-55.5 5v157z" />
    <glyph glyph-name="asciitilde" unicode="~" horiz-adv-x="981" 
d="M926 578q-26 -42 -63 -75q-32 -29 -79 -52t-110 -23q-49 0 -93.5 19.5t-88.5 43t-89 43t-96 19.5q-56 0 -101.5 -23.5t-79.5 -51.5q-40 -33 -71 -75v246q26 42 63 75q32 28 79 51.5t110 23.5q49 0 93.5 -19.5t88.5 -43t89 -43t96 -19.5q55 0 101 23t80 51q40 33 71 75
v-245z" />
    <glyph glyph-name="Euro" unicode="&#x20ac;" 
d="M737 1430q38 0 77.5 -5t74.5 -16v-205q-60 19 -131 19q-67 0 -123.5 -20t-102 -56.5t-79.5 -89t-56 -117.5h369v-166h-399q-2 -18 -2 -36v-72q0 -18 2 -35h399v-166h-369q22 -66 56 -118.5t79.5 -89t102 -56t123.5 -19.5q71 0 131 19v-203q-37 -11 -74 -17t-78 -6
q-115 0 -212 34t-173 97.5t-129 154t-80 204.5h-123v166h101q-2 17 -2 35v72q0 18 2 36h-101v166h123q27 114 80 204.5t129 154t173 97.5t212 34z" />
    <glyph glyph-name="quotesinglbase" unicode="&#x201a;" horiz-adv-x="467" 
d="M375 25l-135 -344h-148l113 319h-113v281h283v-256z" />
    <glyph glyph-name="florin" unicode="&#x192;" 
d="M741 1497q22 0 46.5 -2t48 -5.5t44.5 -8t35 -8.5l-26 -183h-101q-42 0 -67 -22t-31 -66l-28 -205h186l-29 -206h-186l-123 -875q-8 -54 -27.5 -105.5t-55 -92.5t-88 -66t-126.5 -25q-21 0 -45.5 2t-48 6t-44.5 8t-36 9l27 182h100q42 0 67 22.5t31 65.5l123 869h-149
l28 206h150l28 211q8 54 28 106t55 92.5t87.5 65.5t126.5 25z" />
    <glyph glyph-name="quotedblbase" unicode="&#x201e;" horiz-adv-x="840" 
d="M750 25l-136 -344h-147l113 319h-113v281h283v-256zM375 25l-135 -344h-148l113 319h-113v281h283v-256z" />
    <glyph glyph-name="ellipsis" unicode="&#x2026;" horiz-adv-x="1679" 
d="M1540 0h-283v281h283v-281zM422 0h-283v281h283v-281zM981 0h-283v281h283v-281z" />
    <glyph glyph-name="dagger" unicode="&#x2020;" 
d="M541 1030l340 35v-231l-340 36l41 -1224h-234l41 1224l-338 -36v231l338 -35l-35 375h221z" />
    <glyph glyph-name="daggerdbl" unicode="&#x2021;" 
d="M541 1030l340 35v-231l-340 36l41 -338l-41 -346l340 37v-231l-340 35l34 -381h-221l35 381l-338 -35v231l338 -37l-41 346l41 338l-338 -36v231l338 -35l-35 375h221z" />
    <glyph glyph-name="circumflex" unicode="&#x2c6;" horiz-adv-x="559" 
d="M551 1204h-184l-91 142l-92 -142h-184l176 277h201z" />
    <glyph glyph-name="perthousand" unicode="&#x2030;" horiz-adv-x="1679" 
d="M406 0h-142l455 1405h143zM874 715q59 0 106 -18t79.5 -60.5t49.5 -114t17 -178.5t-17 -178t-49.5 -113.5t-79.5 -60t-106 -17.5t-105.5 18t-79 60.5t-49.5 113.5t-17 177q0 107 17 178.5t49.5 114t79 60.5t105.5 18zM874 565q-21 0 -34.5 -11t-21 -36t-10.5 -64t-3 -94
v-30q0 -56 3 -94.5t10.5 -63.5t21 -36t34.5 -11q22 0 35.5 11t21 36t10.5 63.5t3 94.5v30q0 55 -3 94t-10.5 64t-21 36t-35.5 11zM256 1430q59 0 106 -18t79.5 -61t49.5 -114.5t17 -177.5q0 -107 -17 -178t-49.5 -113.5t-79.5 -60t-106 -17.5t-106 18t-79.5 60.5
t-49.5 113.5t-17 177t17 177.5t49.5 114.5t79.5 61t106 18zM256 1280q-21 0 -35 -11t-21.5 -36t-10.5 -64t-3 -94v-31q0 -55 3 -94t10.5 -63.5t21.5 -35.5t35 -11t35 11t21.5 35.5t10.5 63.5t3 94v31q0 55 -3 94t-10.5 64t-21.5 36t-35 11zM1427 715q59 0 106 -18
t79.5 -60.5t49.5 -114t17 -178.5t-17 -178t-49.5 -113.5t-79.5 -60t-106 -17.5t-105.5 18t-79 60.5t-49.5 113.5t-17 177q0 107 17 178.5t49.5 114t79 60.5t105.5 18zM1427 565q-21 0 -34.5 -11t-21 -36t-10.5 -64t-3 -94v-30q0 -56 3 -94.5t10.5 -63.5t21 -36t34.5 -11
q22 0 35.5 11t21 36t10.5 63.5t3 94.5v30q0 55 -3 94t-10.5 64t-21 36t-35.5 11z" />
    <glyph glyph-name="Scaron" unicode="&#x160;" horiz-adv-x="1120" 
d="M559 1430q94 0 177 -24t145 -74.5t98.5 -129t36.5 -186.5v-25h-268v19q0 89 -50.5 141.5t-140.5 52.5q-96 0 -146.5 -42t-50.5 -107q0 -53 29.5 -87.5t77.5 -59t109 -43t125 -40.5t125 -51.5t109 -75t77.5 -112.5t29.5 -164q0 -121 -36.5 -206t-102 -138.5t-156.5 -78
t-200 -24.5q-97 0 -185 27.5t-155 82.5t-106.5 137t-39.5 190q0 12 1 24.5t1 20.5h273q0 -3 -1 -14t-1 -19q0 -50 15 -91t44 -70.5t70.5 -45.5t95.5 -16q59 0 100 14.5t66 38t36 53t11 60.5q0 50 -19 85.5t-52 61t-76.5 44t-92.5 35t-101 33.5t-101 39.5t-92.5 53.5
t-76.5 74.5t-52 103t-19 139.5q0 100 38.5 174t103 123t149.5 73t178 24zM662 1532h-201l-176 277h184l92 -142l91 142h184z" />
    <glyph glyph-name="guilsinglleft" unicode="&#x2039;" horiz-adv-x="559" 
d="M283 668l221 -410h-187l-278 410l278 409h187z" />
    <glyph glyph-name="OE" unicode="&#x152;" horiz-adv-x="1679" 
d="M61 702q0 186 32.5 323t93 227t147 134t194.5 44q94 0 171.5 -37.5t136.5 -114.5v127h772v-234h-510v-335h422v-234h-422v-369h524v-233h-786v125q-59 -77 -136.5 -113.5t-171.5 -36.5q-108 0 -194.5 44t-147 134t-93 226.5t-32.5 322.5zM332 651q0 -120 15.5 -205.5
t47 -140t78.5 -79.5t109 -25q63 0 110 25t78.5 79.5t47.5 140t16 205.5v103q0 120 -16 205.5t-47.5 140t-78.5 79.5t-110 25q-62 0 -109 -25t-78.5 -79.5t-47 -140t-15.5 -205.5v-103z" />
    <glyph glyph-name="Zcaron" unicode="&#x17d;" horiz-adv-x="1026" 
d="M969 1303l-578 -1070h592v-233h-950v100l577 1071h-534v234h893v-102zM615 1532h-201l-176 277h184l92 -142l91 142h184z" />
    <glyph glyph-name="quoteleft" unicode="&#x2018;" horiz-adv-x="467" 
d="M262 1085h113v-280h-283v256l135 344h148z" />
    <glyph glyph-name="quoteright" unicode="&#x2019;" horiz-adv-x="467" 
d="M375 1149l-135 -344h-148l113 319h-113v281h283v-256z" />
    <glyph glyph-name="quotedblleft" unicode="&#x201c;" horiz-adv-x="840" 
d="M635 1085h113v-280h-283v256l135 344h148zM260 1085h113v-280h-283v256l135 344h148z" />
    <glyph glyph-name="quotedblright" unicode="&#x201d;" horiz-adv-x="840" 
d="M750 1149l-136 -344h-147l113 319h-113v281h283v-256zM375 1149l-135 -344h-148l113 319h-113v281h283v-256z" />
    <glyph glyph-name="bullet" unicode="&#x2022;" horiz-adv-x="588" 
d="M293 956q51 0 96.5 -20t79 -54t53 -80t19.5 -97q0 -52 -19.5 -98t-53 -80.5t-79 -55t-96.5 -20.5t-96 20.5t-78.5 55t-52.5 80.5t-19 98q0 51 19 97t52.5 80t78.5 54t96 20z" />
    <glyph glyph-name="endash" unicode="&#x2013;" 
d="M934 453h-934v200h934v-200z" />
    <glyph glyph-name="emdash" unicode="&#x2014;" horiz-adv-x="1679" 
d="M1679 453h-1679v200h1679v-200z" />
    <glyph glyph-name="tilde" unicode="&#x2dc;" horiz-adv-x="559" 
d="M623 1481q0 -42 -11.5 -86.5t-36 -81t-63 -59.5t-92.5 -23q-37 0 -70.5 12t-66.5 26t-66 26t-67 12q-33 0 -53.5 -17t-26.5 -59h-136q0 42 11.5 86.5t35.5 80.5t62 59.5t92 23.5q38 0 72 -12t67 -26t66 -26t68 -12q32 0 52.5 16t26.5 60h136z" />
    <glyph glyph-name="trademark" unicode="&#x2122;" horiz-adv-x="1679" 
d="M1495 578h-147v600h-9l-135 -600h-137l-133 600h-10v-600h-136v827h228l129 -580h8l129 580h213v-827zM723 1268h-207v-690h-154v690h-204v137h565v-137z" />
    <glyph glyph-name="scaron" unicode="&#x161;" 
d="M469 1102q77 0 143.5 -20t116 -57.5t77.5 -92t28 -123.5q0 -17 -1.5 -31t-1.5 -16h-249q0 72 -32.5 105.5t-88.5 33.5q-57 0 -92 -28.5t-35 -77.5q0 -39 22.5 -62.5t59.5 -39t84.5 -27t96.5 -26t96.5 -35.5t84.5 -57t59.5 -90t22.5 -134q0 -99 -30.5 -165.5t-84 -107.5
t-127 -58.5t-159.5 -17.5q-93 0 -165.5 24.5t-123 69.5t-76.5 108t-26 140v8q0 5 1 9q0 4 1 8h249v-14q1 -43 14.5 -72t34.5 -47t47 -25.5t52 -7.5q24 0 49.5 6t46.5 19.5t34 36t13 55.5q0 43 -22.5 69t-59.5 43.5t-84.5 30t-96.5 27.5t-96.5 36t-84.5 56t-59.5 88
t-22.5 131q0 82 30 143.5t82 102.5t122 61.5t151 20.5zM569 1204h-201l-176 277h184l92 -142l91 142h184z" />
    <glyph glyph-name="guilsinglright" unicode="&#x203a;" horiz-adv-x="559" 
d="M520 668l-278 -410h-187l221 410l-221 409h187z" />
    <glyph glyph-name="oe" unicode="&#x153;" horiz-adv-x="1585" 
d="M1104 1102q195 0 292 -136.5t97 -426.5v-62h-547q1 -72 10 -128t28.5 -94.5t51 -58.5t76.5 -20q63 0 100 54t37 151h244q0 -104 -28.5 -180.5t-79.5 -126.5t-121 -74.5t-152 -24.5q-96 0 -169 32.5t-126 101.5q-54 -69 -129 -101.5t-174 -32.5q-215 0 -322.5 137
t-107.5 427t107.5 426.5t322.5 136.5q99 0 173.5 -33t127.5 -102q53 69 124.5 102t164.5 33zM514 895q-95 0 -134.5 -81.5t-39.5 -235.5v-78q0 -155 39.5 -236.5t134.5 -81.5t134.5 81.5t39.5 236.5v78q0 154 -39.5 235.5t-134.5 81.5zM1104 901q-79 0 -114.5 -64.5
t-41.5 -181.5h287q0 118 -31.5 182t-99.5 64z" />
    <glyph glyph-name="zcaron" unicode="&#x17e;" horiz-adv-x="840" 
d="M788 975l-419 -768h434v-207h-766v104l418 766h-394v207h727v-102zM522 1204h-201l-176 277h184l92 -142l91 142h184z" />
    <glyph glyph-name="Ydieresis" unicode="&#x178;" horiz-adv-x="1120" 
d="M692 530v-530h-262v530l-430 875h276l287 -617h8l285 617h264zM484 1585h-205v224h205v-224zM842 1585h-205v224h205v-224z" />
    <glyph glyph-name="uni00A0" unicode="&#xa0;" horiz-adv-x="467" 
 />
    <glyph glyph-name="exclamdown" unicode="&#xa1;" horiz-adv-x="559" 
d="M436 -328h-313l72 1002h167zM422 797h-283v280h283v-280z" />
    <glyph glyph-name="cent" unicode="&#xa2;" 
d="M537 1264q74 -8 134 -37t102 -81.5t64.5 -129.5t22.5 -180h-227q0 186 -96 221v-713q104 31 104 225h219q0 -105 -22.5 -182.5t-64.5 -130t-102 -81t-134 -34.5v-241h-113v243q-176 20 -258 156.5t-82 402.5q0 268 85 404.5t255 155.5v219h113v-217zM424 1055
q-59 -25 -84 -104.5t-25 -209.5v-77q0 -128 26 -207t83 -105v703z" />
    <glyph glyph-name="sterling" unicode="&#xa3;" 
d="M516 1430q84 0 152.5 -25t117 -75t75 -124.5t26.5 -173.5v-26h-244v53q0 81 -34 122.5t-93 41.5q-57 0 -90 -36.5t-33 -111.5v-278h246v-207h-248l-22 -369h503v-221h-831v221h104v369h-127v207h127v225q0 102 25.5 178.5t73.5 127.5t116.5 76.5t155.5 25.5z" />
    <glyph glyph-name="currency" unicode="&#xa4;" 
d="M467 1182q71 0 136.5 -27t119.5 -74l86 86l123 -127l-101 -100q28 -54 43 -114t15 -126q0 -68 -16 -128.5t-44 -114.5l103 -101l-125 -125l-86 86q-54 -45 -118.5 -70.5t-135.5 -25.5q-72 0 -137 25.5t-119 70.5l-86 -86l-125 125l102 103q-27 52 -42 113.5t-15 127.5
q0 131 55 238l-100 102l123 127l86 -86q54 47 119 74t139 27zM467 997q-51 0 -96.5 -23t-79.5 -63t-54 -94.5t-20 -116.5q0 -61 20 -114.5t54 -93.5t79.5 -63t96.5 -23t96 23t78.5 63t53.5 93.5t20 114.5q0 62 -20 116.5t-53.5 94.5t-78.5 63t-96 23z" />
    <glyph glyph-name="yen" unicode="&#xa5;" 
d="M662 788h215v-167h-287v-142h287v-166h-287v-313h-246v313h-287v166h285v144h-285v165h215l-264 617h268l193 -539h8l191 539h256z" />
    <glyph glyph-name="brokenbar" unicode="&#xa6;" horiz-adv-x="471" 
d="M328 719h-185v762h185v-762zM328 -354h-185v762h185v-762z" />
    <glyph glyph-name="section" unicode="&#xa7;" 
d="M489 1430q77 0 143.5 -20t116 -57.5t77.5 -92t28 -123.5q0 -17 -1 -31t-1 -16h-250q0 72 -32.5 105.5t-88.5 33.5q-57 0 -92 -28.5t-35 -78.5q0 -51 22.5 -88t60 -65.5t85 -52.5t97 -49.5t97 -55.5t85 -71.5t60 -98t22.5 -133.5q0 -84 -34 -160.5t-99 -132.5
q46 -46 75 -108t29 -152q0 -82 -29.5 -143.5t-81 -102.5t-122 -61.5t-152.5 -20.5q-77 0 -143.5 20t-116 57.5t-77.5 92t-28 123.5q0 17 1 31t1 16h250q0 -72 32.5 -105.5t88.5 -33.5q57 0 92 28.5t35 77.5q0 52 -22.5 88.5t-60 65.5t-85 53t-97 49.5t-96.5 55.5t-84.5 71.5
t-60 98t-22.5 133.5q0 81 34 158.5t99 134.5q-47 45 -76 107t-29 153q0 82 29.5 143.5t81 102.5t122 61.5t152.5 20.5zM360 735q-18 -25 -30.5 -54t-12.5 -60q0 -62 24.5 -105.5t64 -77.5t89.5 -62t101 -57q20 25 32.5 55t12.5 62q0 61 -24.5 104.5t-64.5 77t-90 61
t-102 56.5z" />
    <glyph glyph-name="dieresis" unicode="&#xa8;" horiz-adv-x="559" 
d="M561 1257h-205v224h205v-224zM203 1257h-205v224h205v-224z" />
    <glyph glyph-name="copyright" unicode="&#xa9;" horiz-adv-x="1237" 
d="M618 1430q137 0 245.5 -51.5t184.5 -146.5t116 -229.5t40 -300.5t-40 -300t-116 -229t-184.5 -146.5t-245.5 -51.5t-245 51.5t-184 146.5t-116 229t-40 300t40 300.5t116 229.5t184 146.5t245 51.5zM623 1133q65 0 121 -19t97 -58.5t64 -101t23 -145.5h-178
q0 87 -35 128.5t-92 41.5q-76 0 -113 -65t-37 -181v-59q0 -116 38.5 -181t117.5 -65q57 0 92 40.5t35 127.5h172q0 -81 -23 -141.5t-63.5 -100.5t-96.5 -60t-122 -20q-78 0 -139 26t-103.5 78.5t-65 133t-22.5 190.5t22.5 191t65 134.5t103.5 79.5t139 26zM618 1317
q-110 0 -197 -43.5t-148 -123.5t-93.5 -193.5t-32.5 -254.5q0 -140 32.5 -253.5t93.5 -193.5t148 -123.5t197 -43.5t197.5 43.5t148.5 123.5t93.5 193.5t32.5 253.5q0 141 -32.5 254.5t-93.5 193.5t-148.5 123.5t-197.5 43.5z" />
    <glyph glyph-name="ordfeminine" unicode="&#xaa;" horiz-adv-x="621" 
d="M309 1503q127 0 187.5 -56t60.5 -159v-348q0 -26 11.5 -37.5t27.5 -11.5h33v-127q-14 -6 -37.5 -13.5t-61.5 -7.5q-49 0 -81.5 26.5t-45.5 68.5h-8q-15 -22 -32.5 -39.5t-39 -30t-49 -19t-63.5 -6.5q-26 0 -57.5 8t-59 30.5t-46.5 62.5t-19 104q0 73 26 122t72.5 78
t111 41.5t142.5 12.5v76q0 17 -2.5 32t-10 26t-20.5 17.5t-35 6.5q-23 0 -38 -6.5t-23.5 -16t-12 -21.5t-3.5 -24v-20h-170q-2 6 -2.5 12.5t-0.5 15.5q0 46 17.5 83.5t49.5 64t77.5 41t101.5 14.5zM381 1081q-33 0 -64.5 -5t-55.5 -18.5t-39 -36.5t-15 -58q0 -34 17.5 -54
t56.5 -20q27 0 46 12t31 32.5t17.5 48t5.5 58.5v41z" />
    <glyph glyph-name="guillemotleft" unicode="&#xab;" 
d="M657 668l222 -410h-187l-278 410l278 409h187zM283 668l221 -410h-187l-278 410l278 409h187z" />
    <glyph glyph-name="logicalnot" unicode="&#xac;" horiz-adv-x="981" 
d="M911 383h-213v334h-639v231h852v-565z" />
    <glyph glyph-name="uni00AD" unicode="&#xad;" horiz-adv-x="559" 
d="M526 432h-493v242h493v-242z" />
    <glyph glyph-name="registered" unicode="&#xae;" horiz-adv-x="1237" 
d="M618 1430q137 0 245.5 -51.5t184.5 -146.5t116 -229.5t40 -300.5t-40 -300t-116 -229t-184.5 -146.5t-245.5 -51.5t-245 51.5t-184 146.5t-116 229t-40 300t40 300.5t116 229.5t184 146.5t245 51.5zM618 1317q-110 0 -197 -43.5t-148 -123.5t-93.5 -193.5t-32.5 -254.5
q0 -140 32.5 -253.5t93.5 -193.5t148 -123.5t197 -43.5t197.5 43.5t148.5 123.5t93.5 193.5t32.5 253.5q0 141 -32.5 254.5t-93.5 193.5t-148.5 123.5t-197.5 43.5zM680 1118q50 0 92.5 -15.5t73 -43t48 -66t17.5 -84.5q0 -41 -10 -72.5t-27.5 -55.5t-41 -40t-50.5 -26v-8
q15 -6 36 -18.5t40 -38t32 -65.5t13 -100q0 -38 4 -64t12 -43t19 -26.5t25 -13.5v-41q-5 -3 -14.5 -6t-21 -5t-23.5 -3.5t-21 -1.5q-29 0 -57 6.5t-50 24t-35.5 48t-13.5 78.5q0 56 -10.5 92.5t-27.5 57.5t-39 29t-44 8h-74v-338h-176v831h324zM532 958v-176h84
q51 0 83 26.5t32 68.5q0 38 -29.5 59.5t-78.5 21.5h-91z" />
    <glyph glyph-name="macron" unicode="&#xaf;" horiz-adv-x="559" 
d="M541 1227h-523v178h523v-178z" />
    <glyph glyph-name="degree" unicode="&#xb0;" horiz-adv-x="819" 
d="M406 1430q60 0 113 -23t92.5 -62.5t62 -92.5t22.5 -113q0 -61 -22.5 -114t-62 -92.5t-92.5 -62t-113 -22.5q-61 0 -114 22.5t-92.5 62t-62 92.5t-22.5 114q0 60 22.5 113t62 92.5t92.5 62.5t114 23zM406 1288q-32 0 -59.5 -11.5t-48 -31.5t-32.5 -47.5t-12 -58.5
q0 -32 12 -59.5t32.5 -48t48 -32.5t59.5 -12q31 0 58 12t47.5 32.5t32 48t11.5 59.5q0 31 -11.5 58.5t-32 47.5t-47.5 31.5t-58 11.5z" />
    <glyph glyph-name="plusminus" unicode="&#xb1;" horiz-adv-x="1124" 
d="M666 862h317v-213h-317v-354h-211v354h-316v213h316v357h211v-357zM983 0h-844v211h844v-211z" />
    <glyph glyph-name="twosuperior" unicode="&#xb2;" horiz-adv-x="559" 
d="M285 1503q48 0 89.5 -12.5t72.5 -39t49 -68.5t18 -101q0 -75 -29 -136.5t-71.5 -117t-91 -109.5t-86.5 -112h282v-152h-487v37q0 49 13.5 91t35.5 79.5t50 71.5t56 67q32 36 61 70.5t50.5 68.5t34 69.5t12.5 74.5q0 13 -3 26.5t-10.5 24.5t-20 18t-31.5 7t-32.5 -9
t-22.5 -24.5t-13 -36t-4 -43.5v-57h-162q-2 8 -3 17q-3 15 -3 38q0 69 20 118t54 80t78.5 45.5t93.5 14.5z" />
    <glyph glyph-name="threesuperior" unicode="&#xb3;" horiz-adv-x="559" 
d="M276 1503q52 0 95.5 -15t75 -44.5t48.5 -73t17 -100.5q0 -69 -29 -111.5t-75 -73.5q49 -24 82.5 -74.5t33.5 -127.5q0 -57 -18 -102.5t-50 -77t-76.5 -48t-98.5 -16.5q-61 0 -108 18t-79 51.5t-48.5 80.5t-16.5 106v31h168v-35q0 -54 20 -82.5t62 -28.5q34 0 55.5 26
t21.5 85q0 35 -7.5 58t-19.5 36.5t-27.5 19t-31.5 5.5h-51v137h53q28 0 49 29t21 88q0 52 -17 75t-46 23q-32 0 -50 -25t-18 -77v-33h-168v43q0 53 17 96t48 73.5t74 47t94 16.5z" />
    <glyph glyph-name="acute" unicode="&#xb4;" horiz-adv-x="559" 
d="M522 1475l-221 -265h-203l176 271h246z" />
    <glyph glyph-name="mu" unicode="&#xb5;" horiz-adv-x="1026" 
d="M913 0h-204l-25 133h-12q-18 -32 -41 -60.5t-52 -50t-63.5 -34.5t-75.5 -13q-21 0 -42 4.5t-40 12.5v-346h-245v1431h245v-688q0 -104 36.5 -147t105.5 -43q36 0 66.5 16t53 44t35.5 67t13 84v667h245v-1077z" />
    <glyph glyph-name="paragraph" unicode="&#xb6;" 
d="M920 1249h-99v-1603h-166v1603h-108v-1603h-164v866q-74 10 -137 48t-109.5 97.5t-73 135.5t-26.5 163q0 93 30.5 175t84 142.5t125 96t153.5 35.5h490v-156z" />
    <glyph glyph-name="periodcentered" unicode="&#xb7;" horiz-adv-x="467" 
d="M356 569h-247v269h247v-269z" />
    <glyph glyph-name="cedilla" unicode="&#xb8;" horiz-adv-x="559" 
d="M307 -68q33 -2 62.5 -11t51.5 -25.5t35 -42t13 -60.5q0 -51 -22.5 -83.5t-56 -51t-72.5 -25t-72 -6.5q-44 0 -89.5 4.5t-82.5 12.5v100h145q34 0 54 10t20 39q0 25 -15 37t-55 12h-67l22 181h139z" />
    <glyph glyph-name="onesuperior" unicode="&#xb9;" horiz-adv-x="559" 
d="M383 797h135v-142h-450v142h151v477h-153v115q23 3 53 11.5t62 20.5t63 27.5t57 32.5h82v-684z" />
    <glyph glyph-name="ordmasculine" unicode="&#xba;" horiz-adv-x="612" 
d="M311 1503q146 0 218.5 -92.5t72.5 -288.5q0 -197 -72.5 -289t-218.5 -92t-218.5 92t-72.5 289q0 196 72.5 288.5t218.5 92.5zM311 1354q-60 0 -84 -52.5t-24 -152.5v-53q0 -100 24 -152.5t84 -52.5t84.5 52.5t24.5 152.5v53q0 100 -24.5 152.5t-84.5 52.5z" />
    <glyph glyph-name="guillemotright" unicode="&#xbb;" 
d="M895 668l-279 -410h-186l221 410l-221 409h186zM520 668l-278 -410h-187l221 410l-221 409h187z" />
    <glyph glyph-name="onequarter" unicode="&#xbc;" horiz-adv-x="1401" 
d="M403 -25h-137l811 1455h135zM383 721h135v-141h-450v141h151v477h-153v115q23 3 53 11.5t62 20.5t63 27.5t57 32.5h82v-684zM1184 848q-17 -78 -45.5 -159t-60 -152t-61.5 -127t-50 -86h139v75q12 23 28 58.5t31 73.5t27.5 74.5t19.5 62.5h56v-344h86v-142h-86v-182h-162
v182h-293v125q31 56 60.5 121.5t56 135.5t50 142t42.5 142h162z" />
    <glyph glyph-name="onehalf" unicode="&#xbd;" horiz-adv-x="1401" 
d="M393 -25h-137l811 1455h135zM383 721h135v-141h-450v141h151v477h-153v115q23 3 53 11.5t62 20.5t63 27.5t57 32.5h82v-684zM1124 848q48 0 89.5 -12.5t73 -39t49.5 -68.5t18 -101q0 -75 -29 -136.5t-72 -117.5t-91 -109.5t-87 -111.5h283v-152h-488v37q0 49 13.5 91
t36 79.5t50 71.5t56.5 67q32 36 61 70t50.5 68t34 70t12.5 75q0 13 -3 26.5t-10.5 24.5t-20.5 18t-32 7q-18 0 -31.5 -9t-22.5 -24.5t-13 -36t-4 -43.5v-57h-162q-2 8 -3 17q-3 15 -3 38q0 69 20 118t53.5 80t78 45.5t93.5 14.5z" />
    <glyph glyph-name="threequarters" unicode="&#xbe;" horiz-adv-x="1401" 
d="M395 -25h-137l811 1455h135zM307 1430q52 0 95.5 -15t74.5 -45t48.5 -73.5t17.5 -100.5q0 -69 -29 -111t-76 -73q50 -25 83.5 -75.5t33.5 -127.5q0 -57 -18 -102.5t-50 -77t-77 -48t-99 -16.5q-60 0 -107 18t-79.5 51.5t-49 81t-16.5 105.5v31h168v-35q0 -110 82 -110
q34 0 56 25.5t22 84.5q0 35 -7.5 58t-19.5 36.5t-27.5 19t-31.5 5.5h-51v137h53q28 0 49 29t21 88q0 53 -17.5 75.5t-46.5 22.5q-67 0 -67 -102v-33h-168v43q0 53 17 96t48 74t74 47.5t94 16.5zM1178 848q-17 -78 -45.5 -159t-60 -152t-61.5 -127t-50 -86h139v75
q12 23 28 58.5t31 73.5t27.5 74.5t19.5 62.5h56v-344h86v-142h-86v-182h-162v182h-293v125q31 56 60.5 121.5t56 135.5t50 142t42.5 142h162z" />
    <glyph glyph-name="questiondown" unicode="&#xbf;" horiz-adv-x="1026" 
d="M612 586q0 -62 -18 -108t-45.5 -85.5t-59 -75.5t-59 -76.5t-45.5 -90t-18 -115.5q0 -15 4.5 -43.5t19.5 -56t43 -48t76 -20.5q51 0 82.5 23t48 56t22 70t5.5 66q0 12 -0.5 22t-0.5 18q-1 9 -1 15h258q1 -14 3 -27q1 -11 2 -23t1 -21q0 -86 -27 -162t-81.5 -133
t-136.5 -90t-191 -33q-92 0 -165 26.5t-124.5 74.5t-79 115t-27.5 148q0 91 19 154.5t47.5 110.5t61.5 83.5t61.5 73.5t47.5 79.5t19 102.5v58h258v-88zM623 797h-283v280h283v-280z" />
    <glyph glyph-name="Agrave" unicode="&#xc0;" horiz-adv-x="1212" 
d="M1210 0h-268l-86 276h-518l-84 -276h-254l453 1405h305zM594 1169q-6 -37 -13 -71q-6 -29 -13 -62t-15 -57l-143 -469h374l-141 469q-8 28 -16 61t-13 62q-7 33 -12 67h-8zM747 1538h-203l-221 265l2 6h246z" />
    <glyph glyph-name="Aacute" unicode="&#xc1;" horiz-adv-x="1212" 
d="M1210 0h-268l-86 276h-518l-84 -276h-254l453 1405h305zM594 1169q-6 -37 -13 -71q-6 -29 -13 -62t-15 -57l-143 -469h374l-141 469q-8 28 -16 61t-13 62q-7 33 -12 67h-8zM889 1803l-221 -265h-203l176 271h246z" />
    <glyph glyph-name="Acircumflex" unicode="&#xc2;" horiz-adv-x="1212" 
d="M1210 0h-268l-86 276h-518l-84 -276h-254l453 1405h305zM594 1169q-6 -37 -13 -71q-6 -29 -13 -62t-15 -57l-143 -469h374l-141 469q-8 28 -16 61t-13 62q-7 33 -12 67h-8zM882 1532h-184l-91 142l-92 -142h-184l176 277h201z" />
    <glyph glyph-name="Atilde" unicode="&#xc3;" horiz-adv-x="1212" 
d="M1210 0h-268l-86 276h-518l-84 -276h-254l453 1405h305zM594 1169q-6 -37 -13 -71q-6 -29 -13 -62t-15 -57l-143 -469h374l-141 469q-8 28 -16 61t-13 62q-7 33 -12 67h-8zM951 1809q0 -42 -11.5 -86.5t-36 -81t-63 -59.5t-92.5 -23q-37 0 -70.5 12t-66.5 26t-66 26
t-67 12q-33 0 -53.5 -17t-26.5 -59h-136q0 42 11.5 86.5t35.5 80.5t62 59.5t92 23.5q38 0 72 -12t67 -26t66 -26t68 -12q32 0 52.5 16t26.5 60h136z" />
    <glyph glyph-name="Adieresis" unicode="&#xc4;" horiz-adv-x="1212" 
d="M1210 0h-268l-86 276h-518l-84 -276h-254l453 1405h305zM594 1169q-6 -37 -13 -71q-6 -29 -13 -62t-15 -57l-143 -469h374l-141 469q-8 28 -16 61t-13 62q-7 33 -12 67h-8zM530 1585h-205v224h205v-224zM888 1585h-205v224h205v-224z" />
    <glyph glyph-name="Aring" unicode="&#xc5;" horiz-adv-x="1212" 
d="M1210 0h-268l-86 276h-518l-84 -276h-254l453 1405h305zM594 1169q-6 -37 -13 -71q-6 -29 -13 -62t-15 -57l-143 -469h374l-141 469q-8 28 -16 61t-13 62q-7 33 -12 67h-8zM607 1870q41 0 77 -15.5t62.5 -42.5t41.5 -62.5t15 -75.5q0 -41 -15.5 -77t-42 -62.5t-62.5 -42
t-76 -15.5t-76 15t-63 41.5t-42.5 62.5t-15.5 78q0 40 15.5 76t42 62.5t62.5 42t77 15.5zM607 1768q-41 0 -68 -27t-27 -67q0 -41 27 -68t68 -27q19 0 36 7t30 20t20.5 30.5t7.5 37.5t-7.5 37t-20.5 30t-30 20t-36 7z" />
    <glyph glyph-name="AE" unicode="&#xc6;" horiz-adv-x="1679" 
d="M915 0l-67 276h-518l-103 -276h-243l538 1405h1057v-234h-682l82 -335h510v-234h-453l90 -369h465v-233h-676zM416 510h377l-144 608h-8z" />
    <glyph glyph-name="Ccedilla" unicode="&#xc7;" horiz-adv-x="1212" 
d="M672 -68q33 -2 62.5 -11t51.5 -25.5t35 -42t13 -60.5q0 -51 -22.5 -83.5t-56 -51t-72.5 -25t-72 -6.5q-44 0 -89.5 4.5t-82.5 12.5v100h145q34 0 54 10t20 39q0 25 -15 37t-55 12h-67l17 139q-79 10 -145 38q-104 44 -176 134t-109.5 226.5t-37.5 322.5t37.5 323
t109.5 227t176 134t236 44q110 0 204.5 -32t163.5 -98.5t108.5 -170t39.5 -246.5h-268q0 81 -18 141.5t-51 100.5t-78.5 59.5t-100.5 19.5q-73 0 -127.5 -31t-90.5 -89t-53.5 -141.5t-17.5 -188.5v-103q0 -105 18 -188.5t55 -141.5t93 -89t131 -31q57 0 103.5 19.5t79.5 59
t51 99.5t18 141h256q0 -138 -39 -240.5t-108 -170t-164 -101.5q-73 -25 -157 -31z" />
    <glyph glyph-name="Egrave" unicode="&#xc8;" horiz-adv-x="1120" 
d="M700 1538h-202l-222 264l3 6h245zM123 0v1405h895v-234h-633v-335h543v-234h-543v-369h645v-233h-907z" />
    <glyph glyph-name="Eacute" unicode="&#xc9;" horiz-adv-x="1120" 
d="M844 1802l-221 -264h-203l176 270h246zM123 0v1405h895v-234h-633v-335h543v-234h-543v-369h645v-233h-907z" />
    <glyph glyph-name="Ecircumflex" unicode="&#xca;" horiz-adv-x="1120" 
d="M836 1532h-185l-90 141l-92 -141h-184l176 276h201zM123 0v1405h895v-234h-633v-335h543v-234h-543v-369h645v-233h-907z" />
    <glyph glyph-name="Edieresis" unicode="&#xcb;" horiz-adv-x="1120" 
d="M483 1585h-204v223h204v-223zM842 1585h-205v223h205v-223zM123 0v1405h895v-234h-633v-335h543v-234h-543v-369h645v-233h-907z" />
    <glyph glyph-name="Igrave" unicode="&#xcc;" horiz-adv-x="467" 
d="M365 0h-263v1405h263v-1405zM375 1538h-203l-221 265l2 6h246z" />
    <glyph glyph-name="Iacute" unicode="&#xcd;" horiz-adv-x="467" 
d="M365 0h-263v1405h263v-1405zM517 1803l-221 -265h-203l176 271h246z" />
    <glyph glyph-name="Icircumflex" unicode="&#xce;" horiz-adv-x="467" 
d="M365 0h-263v1405h263v-1405zM510 1532h-184l-91 142l-92 -142h-185l177 277h201z" />
    <glyph glyph-name="Idieresis" unicode="&#xcf;" horiz-adv-x="467" 
d="M365 0h-263v1405h263v-1405zM158 1585h-206v224h206v-224zM516 1585h-205v224h205v-224z" />
    <glyph glyph-name="Eth" unicode="&#xd0;" horiz-adv-x="1212" 
d="M20 813h103v592h457q131 0 235.5 -43t177 -128.5t111.5 -213t39 -297.5q0 -180 -39 -315.5t-111.5 -226t-177 -136t-235.5 -45.5h-457v639h-103v174zM385 1171v-358h256v-174h-256v-406h170q73 0 131.5 27.5t100 82t63.5 137t22 192.5v102q0 99 -22 173.5t-63.5 124
t-100 74.5t-131.5 25h-170z" />
    <glyph glyph-name="Ntilde" unicode="&#xd1;" horiz-adv-x="1212" 
d="M950 1808q0 -42 -11 -86t-35.5 -80.5t-63 -59.5t-92.5 -23q-37 0 -71 11.5t-67 26t-66 26t-67 11.5q-32 0 -52.5 -16.5t-27.5 -58.5h-135q0 42 11 86t35.5 80.5t62.5 59.5t92 23q37 0 71.5 -11.5t67.5 -26t65.5 -26t67.5 -11.5q32 0 53 16t27 59h135zM856 0l-434 774
q-6 11 -16.5 32.5t-21.5 43.5q-12 26 -26 55l-8 -6q1 -23 2 -45q1 -19 1.5 -38.5t0.5 -33.5v-782h-231v1405h231l434 -774q8 -14 19.5 -36t21.5 -43q11 -25 23 -52l6 6q-1 27 -1 50q-1 20 -1 39v28v782h234v-1405h-234z" />
    <glyph glyph-name="Ograve" unicode="&#xd2;" horiz-adv-x="1307" 
d="M653 1430q136 0 244.5 -44t184 -134t115.5 -227t40 -323t-40 -322.5t-115.5 -226.5t-184 -134t-244.5 -44t-244 44t-183.5 134t-115.5 226.5t-40 322.5t40 323t115.5 227t183.5 134t244 44zM653 1204q-78 0 -137 -31t-98 -89t-58.5 -141.5t-19.5 -188.5v-103
q0 -105 19.5 -188.5t58.5 -141.5t98 -89t137 -31t137 31t98.5 89t59 141.5t19.5 188.5v103q0 105 -19.5 188.5t-59 141.5t-98.5 89t-137 31zM795 1538h-203l-221 265l2 6h246z" />
    <glyph glyph-name="Oacute" unicode="&#xd3;" horiz-adv-x="1307" 
d="M653 1430q136 0 244.5 -44t184 -134t115.5 -227t40 -323t-40 -322.5t-115.5 -226.5t-184 -134t-244.5 -44t-244 44t-183.5 134t-115.5 226.5t-40 322.5t40 323t115.5 227t183.5 134t244 44zM653 1204q-78 0 -137 -31t-98 -89t-58.5 -141.5t-19.5 -188.5v-103
q0 -105 19.5 -188.5t58.5 -141.5t98 -89t137 -31t137 31t98.5 89t59 141.5t19.5 188.5v103q0 105 -19.5 188.5t-59 141.5t-98.5 89t-137 31zM937 1803l-221 -265h-203l176 271h246z" />
    <glyph glyph-name="Ocircumflex" unicode="&#xd4;" horiz-adv-x="1307" 
d="M653 1430q136 0 244.5 -44t184 -134t115.5 -227t40 -323t-40 -322.5t-115.5 -226.5t-184 -134t-244.5 -44t-244 44t-183.5 134t-115.5 226.5t-40 322.5t40 323t115.5 227t183.5 134t244 44zM653 1204q-78 0 -137 -31t-98 -89t-58.5 -141.5t-19.5 -188.5v-103
q0 -105 19.5 -188.5t58.5 -141.5t98 -89t137 -31t137 31t98.5 89t59 141.5t19.5 188.5v103q0 105 -19.5 188.5t-59 141.5t-98.5 89t-137 31zM930 1532h-184l-91 142l-92 -142h-184l176 277h201z" />
    <glyph glyph-name="Otilde" unicode="&#xd5;" horiz-adv-x="1307" 
d="M653 1430q136 0 244.5 -44t184 -134t115.5 -227t40 -323t-40 -322.5t-115.5 -226.5t-184 -134t-244.5 -44t-244 44t-183.5 134t-115.5 226.5t-40 322.5t40 323t115.5 227t183.5 134t244 44zM653 1204q-78 0 -137 -31t-98 -89t-58.5 -141.5t-19.5 -188.5v-103
q0 -105 19.5 -188.5t58.5 -141.5t98 -89t137 -31t137 31t98.5 89t59 141.5t19.5 188.5v103q0 105 -19.5 188.5t-59 141.5t-98.5 89t-137 31zM999 1809q0 -42 -11.5 -86.5t-36 -81t-63 -59.5t-92.5 -23q-37 0 -70.5 12t-66.5 26t-66 26t-67 12q-33 0 -53.5 -17t-26.5 -59
h-136q0 42 11.5 86.5t35.5 80.5t62 59.5t92 23.5q38 0 72 -12t67 -26t66 -26t68 -12q32 0 52.5 16t26.5 60h136z" />
    <glyph glyph-name="Odieresis" unicode="&#xd6;" horiz-adv-x="1307" 
d="M653 1430q136 0 244.5 -44t184 -134t115.5 -227t40 -323t-40 -322.5t-115.5 -226.5t-184 -134t-244.5 -44t-244 44t-183.5 134t-115.5 226.5t-40 322.5t40 323t115.5 227t183.5 134t244 44zM653 1204q-78 0 -137 -31t-98 -89t-58.5 -141.5t-19.5 -188.5v-103
q0 -105 19.5 -188.5t58.5 -141.5t98 -89t137 -31t137 31t98.5 89t59 141.5t19.5 188.5v103q0 105 -19.5 188.5t-59 141.5t-98.5 89t-137 31zM578 1585h-205v224h205v-224zM936 1585h-205v224h205v-224z" />
    <glyph glyph-name="multiply" unicode="&#xd7;" horiz-adv-x="981" 
d="M950 823l-299 -299l299 -297l-147 -147l-299 299l-297 -299l-148 147l299 297l-299 299l148 148l297 -299l299 299z" />
    <glyph glyph-name="Oslash" unicode="&#xd8;" horiz-adv-x="1307" 
d="M1081 1249q76 -90 116 -225.5t40 -321.5t-40 -322.5t-115.5 -226.5t-184 -134t-244.5 -44q-184 0 -317 80l-82 -131h-172l143 230q-75 89 -115 225.5t-40 322.5t40 323t115.5 227t183.5 134t244 44q187 0 318 -82l84 133h172zM467 264q72 -63 186 -63q78 0 137 31
t98.5 89t59 141.5t19.5 188.5v103q0 72 -9.5 135.5t-29.5 114.5zM653 1204q-78 0 -137 -31t-98 -89t-58.5 -141.5t-19.5 -188.5v-103q0 -74 9 -137.5t28 -116.5l463 742q-71 65 -187 65z" />
    <glyph glyph-name="Ugrave" unicode="&#xd9;" horiz-adv-x="1212" 
d="M748 1538h-203l-221 264l2 6h245zM125 1405h262v-956q0 -122 57 -185t162 -63t163 63t58 185v956h263v-965q0 -114 -33.5 -201t-96 -145.5t-152 -88.5t-202.5 -30t-202 30t-151 88.5t-95 145.5t-33 201v965z" />
    <glyph glyph-name="Uacute" unicode="&#xda;" horiz-adv-x="1212" 
d="M889 1802l-221 -264h-203l176 270h246zM125 1405h262v-956q0 -122 57 -185t162 -63t163 63t58 185v956h263v-965q0 -114 -33.5 -201t-96 -145.5t-152 -88.5t-202.5 -30t-202 30t-151 88.5t-95 145.5t-33 201v965z" />
    <glyph glyph-name="Ucircumflex" unicode="&#xdb;" horiz-adv-x="1212" 
d="M883 1532h-185l-92 141l-92 -141h-182l176 276h201zM125 1405h262v-956q0 -122 57 -185t162 -63t163 63t58 185v956h263v-965q0 -114 -33.5 -201t-96 -145.5t-152 -88.5t-202.5 -30t-202 30t-151 88.5t-95 145.5t-33 201v965z" />
    <glyph glyph-name="Udieresis" unicode="&#xdc;" horiz-adv-x="1212" 
d="M530 1585h-204v223h204v-223zM889 1585h-207v223h207v-223zM125 1405h262v-956q0 -122 57 -185t162 -63t163 63t58 185v956h263v-965q0 -114 -33.5 -201t-96 -145.5t-152 -88.5t-202.5 -30t-202 30t-151 88.5t-95 145.5t-33 201v965z" />
    <glyph glyph-name="Yacute" unicode="&#xdd;" horiz-adv-x="1120" 
d="M692 530v-530h-262v530l-430 875h276l287 -617h8l285 617h264zM843 1803l-221 -265h-203l176 271h246z" />
    <glyph glyph-name="Thorn" unicode="&#xde;" horiz-adv-x="1120" 
d="M385 295v-295h-262v1405h262v-250h240q109 0 191 -31.5t137.5 -88t83.5 -134t28 -168.5q0 -99 -31.5 -180t-89.5 -138t-139 -88.5t-180 -31.5h-240zM385 922v-396h213q96 0 146.5 55t50.5 152q0 87 -51.5 138t-145.5 51h-213z" />
    <glyph glyph-name="germandbls" unicode="&#xdf;" horiz-adv-x="1026" 
d="M520 1505q88 0 162.5 -26t128.5 -75.5t84.5 -120.5t30.5 -161q0 -51 -14.5 -99.5t-40 -90.5t-61.5 -74t-79 -49v-8q52 -19 96 -56t75.5 -85.5t49 -105.5t17.5 -116q0 -99 -32 -180t-87.5 -138t-130 -88.5t-160.5 -31.5h-133v209h106q39 0 73.5 18.5t60 50t40.5 73.5
t15 89q0 46 -15 87t-40.5 71.5t-60 48t-73.5 17.5h-106v231h100q31 0 59 17.5t48.5 47.5t32.5 70.5t12 85.5q0 40 -10.5 73.5t-31.5 57.5t-52.5 37.5t-73.5 13.5q-82 0 -132 -55.5t-50 -161.5v-1081h-246v1065q0 117 34 200.5t93 137t139 78t172 24.5z" />
    <glyph glyph-name="agrave" unicode="&#xe0;" 
d="M444 1102q187 0 277 -83.5t90 -234.5v-530q0 -38 18 -55t39 -17h50v-174q-20 -11 -55 -22t-91 -11q-74 0 -123 39.5t-67 102.5h-11q-23 -32 -48 -58.5t-57 -45t-72.5 -28.5t-94.5 -10q-38 0 -84.5 12.5t-88 46t-69.5 92.5t-28 153q0 109 39.5 181t110 115.5t169 61.5
t215.5 18v113q0 28 -4.5 52t-16.5 42t-34 28.5t-57 10.5q-38 0 -63 -10.5t-39.5 -26.5t-20.5 -36.5t-6 -39.5v-30h-240q-2 9 -2 20v25q0 67 26 122.5t73.5 94.5t114.5 60.5t150 21.5zM563 477q-54 0 -104.5 -8t-90 -28t-63.5 -54t-24 -86q0 -56 28.5 -88.5t91.5 -32.5
q44 0 74.5 19t50 51.5t28.5 75t9 90.5v61zM585 1210h-203l-221 265l2 6h246z" />
    <glyph glyph-name="aacute" unicode="&#xe1;" 
d="M444 1102q187 0 277 -83.5t90 -234.5v-530q0 -38 18 -55t39 -17h50v-174q-20 -11 -55 -22t-91 -11q-74 0 -123 39.5t-67 102.5h-11q-23 -32 -48 -58.5t-57 -45t-72.5 -28.5t-94.5 -10q-38 0 -84.5 12.5t-88 46t-69.5 92.5t-28 153q0 109 39.5 181t110 115.5t169 61.5
t215.5 18v113q0 28 -4.5 52t-16.5 42t-34 28.5t-57 10.5q-38 0 -63 -10.5t-39.5 -26.5t-20.5 -36.5t-6 -39.5v-30h-240q-2 9 -2 20v25q0 67 26 122.5t73.5 94.5t114.5 60.5t150 21.5zM563 477q-54 0 -104.5 -8t-90 -28t-63.5 -54t-24 -86q0 -56 28.5 -88.5t91.5 -32.5
q44 0 74.5 19t50 51.5t28.5 75t9 90.5v61zM727 1475l-221 -265h-203l176 271h246z" />
    <glyph glyph-name="acircumflex" unicode="&#xe2;" 
d="M444 1102q187 0 277 -83.5t90 -234.5v-530q0 -38 18 -55t39 -17h50v-174q-20 -11 -55 -22t-91 -11q-74 0 -123 39.5t-67 102.5h-11q-23 -32 -48 -58.5t-57 -45t-72.5 -28.5t-94.5 -10q-38 0 -84.5 12.5t-88 46t-69.5 92.5t-28 153q0 109 39.5 181t110 115.5t169 61.5
t215.5 18v113q0 28 -4.5 52t-16.5 42t-34 28.5t-57 10.5q-38 0 -63 -10.5t-39.5 -26.5t-20.5 -36.5t-6 -39.5v-30h-240q-2 9 -2 20v25q0 67 26 122.5t73.5 94.5t114.5 60.5t150 21.5zM720 1204h-184l-91 142l-92 -142h-184l176 277h201zM563 477q-54 0 -104.5 -8t-90 -28
t-63.5 -54t-24 -86q0 -56 28.5 -88.5t91.5 -32.5q44 0 74.5 19t50 51.5t28.5 75t9 90.5v61z" />
    <glyph glyph-name="atilde" unicode="&#xe3;" 
d="M444 1102q187 0 277 -83.5t90 -234.5v-530q0 -38 18 -55t39 -17h50v-174q-20 -11 -55 -22t-91 -11q-74 0 -123 39.5t-67 102.5h-11q-23 -32 -48 -58.5t-57 -45t-72.5 -28.5t-94.5 -10q-38 0 -84.5 12.5t-88 46t-69.5 92.5t-28 153q0 109 39.5 181t110 115.5t169 61.5
t215.5 18v113q0 28 -4.5 52t-16.5 42t-34 28.5t-57 10.5q-38 0 -63 -10.5t-39.5 -26.5t-20.5 -36.5t-6 -39.5v-30h-240q-2 9 -2 20v25q0 67 26 122.5t73.5 94.5t114.5 60.5t150 21.5zM789 1481q0 -42 -11.5 -86.5t-36 -81t-63 -59.5t-92.5 -23q-37 0 -70.5 12t-66.5 26
t-66 26t-67 12q-33 0 -53.5 -17t-26.5 -59h-136q0 42 11.5 86.5t35.5 80.5t62 59.5t92 23.5q38 0 72 -12t67 -26t66 -26t68 -12q32 0 52.5 16t26.5 60h136zM563 477q-54 0 -104.5 -8t-90 -28t-63.5 -54t-24 -86q0 -56 28.5 -88.5t91.5 -32.5q44 0 74.5 19t50 51.5t28.5 75
t9 90.5v61z" />
    <glyph glyph-name="adieresis" unicode="&#xe4;" 
d="M444 1102q187 0 277 -83.5t90 -234.5v-530q0 -38 18 -55t39 -17h50v-174q-20 -11 -55 -22t-91 -11q-74 0 -123 39.5t-67 102.5h-11q-23 -32 -48 -58.5t-57 -45t-72.5 -28.5t-94.5 -10q-38 0 -84.5 12.5t-88 46t-69.5 92.5t-28 153q0 109 39.5 181t110 115.5t169 61.5
t215.5 18v113q0 28 -4.5 52t-16.5 42t-34 28.5t-57 10.5q-38 0 -63 -10.5t-39.5 -26.5t-20.5 -36.5t-6 -39.5v-30h-240q-2 9 -2 20v25q0 67 26 122.5t73.5 94.5t114.5 60.5t150 21.5zM563 477q-54 0 -104.5 -8t-90 -28t-63.5 -54t-24 -86q0 -56 28.5 -88.5t91.5 -32.5
q44 0 74.5 19t50 51.5t28.5 75t9 90.5v61zM368 1257h-205v224h205v-224zM726 1257h-205v224h205v-224z" />
    <glyph glyph-name="aring" unicode="&#xe5;" 
d="M444 1102q187 0 277 -83.5t90 -234.5v-530q0 -38 18 -55t39 -17h50v-174q-20 -11 -55 -22t-91 -11q-74 0 -123 39.5t-67 102.5h-11q-23 -32 -48 -58.5t-57 -45t-72.5 -28.5t-94.5 -10q-38 0 -84.5 12.5t-88 46t-69.5 92.5t-28 153q0 109 39.5 181t110 115.5t169 61.5
t215.5 18v113q0 28 -4.5 52t-16.5 42t-34 28.5t-57 10.5q-38 0 -63 -10.5t-39.5 -26.5t-20.5 -36.5t-6 -39.5v-30h-240q-2 9 -2 20v25q0 67 26 122.5t73.5 94.5t114.5 60.5t150 21.5zM445 1542q41 0 77 -15.5t62.5 -42.5t41.5 -62.5t15 -75.5q0 -41 -15.5 -77t-42 -62.5
t-62.5 -42t-76 -15.5t-76 15t-63 41.5t-42.5 62.5t-15.5 78q0 40 15.5 76t42 62.5t62.5 42t77 15.5zM563 477q-54 0 -104.5 -8t-90 -28t-63.5 -54t-24 -86q0 -56 28.5 -88.5t91.5 -32.5q44 0 74.5 19t50 51.5t28.5 75t9 90.5v61zM445 1440q-41 0 -68 -27t-27 -67
q0 -41 27 -68t68 -27q19 0 36 7t30 20t20.5 30.5t7.5 37.5t-7.5 37t-20.5 30t-30 20t-36 7z" />
    <glyph glyph-name="ae" unicode="&#xe6;" horiz-adv-x="1493" 
d="M1024 1102q195 0 292 -136.5t97 -426.5v-62h-547q1 -72 10 -128t28.5 -94.5t51 -58.5t76.5 -20q63 0 100 54t37 151h244q0 -104 -28.5 -180.5t-79.5 -126.5t-121 -74.5t-152 -24.5q-108 0 -188.5 36t-132.5 110q-29 -32 -62.5 -59t-72.5 -46.5t-86 -30t-103 -10.5
q-44 0 -98 12.5t-101.5 46t-79.5 92.5t-32 153q0 109 39.5 181t110 115.5t169 61.5t215.5 18v113q0 28 -4.5 52t-16.5 42t-34 28.5t-57 10.5q-38 0 -63 -10.5t-39.5 -26.5t-20.5 -36.5t-6 -39.5v-30h-240q-2 9 -2 20v25q0 67 26 122.5t73.5 94.5t115 60.5t150.5 21.5
q92 0 161 -26.5t115 -76.5q50 53 114 78t142 25zM610 477q-54 0 -104.5 -8t-90 -28t-63.5 -54t-24 -86q0 -56 29 -88.5t92 -32.5q43 0 74 19t50 51.5t28 75t9 90.5v61zM1024 901q-78 0 -113.5 -64t-42.5 -182h287q0 118 -31.5 182t-99.5 64z" />
    <glyph glyph-name="ccedilla" unicode="&#xe7;" 
d="M533 -68q33 -2 62.5 -11t51.5 -25.5t35 -42t13 -60.5q0 -51 -22.5 -83.5t-56 -51t-72.5 -25t-72 -6.5q-44 0 -89.5 4.5t-82.5 12.5v100h145q34 0 54 10t20 39q0 25 -15 37t-55 12h-67l17 141q-49 8 -89 25q-77 34 -127.5 103.5t-74.5 176t-24 251.5q0 290 99.5 426.5
t299.5 136.5q86 0 156 -25t119 -77.5t75.5 -133.5t26.5 -194h-252q0 114 -31 168.5t-94 54.5q-78 0 -110.5 -81t-32.5 -236v-78q0 -155 34.5 -236.5t117.5 -81.5q66 0 95 56t29 168h244q0 -113 -26 -194.5t-74 -134t-116 -77.5q-49 -18 -106 -23z" />
    <glyph glyph-name="egrave" unicode="&#xe8;" 
d="M477 1102q195 0 292 -136.5t97 -426.5v-62h-547q1 -72 10.5 -128t29 -94.5t50.5 -58.5t76 -20q63 0 100.5 54t37.5 151h243q0 -104 -28.5 -180.5t-79.5 -126.5t-121 -74.5t-152 -24.5q-207 0 -314.5 137t-107.5 427t107 426.5t307 136.5zM477 901q-78 0 -113.5 -64
t-41.5 -182h286q0 118 -31.5 182t-99.5 64zM608 1210h-203l-221 265l2 6h246z" />
    <glyph glyph-name="eacute" unicode="&#xe9;" 
d="M477 1102q195 0 292 -136.5t97 -426.5v-62h-547q1 -72 10.5 -128t29 -94.5t50.5 -58.5t76 -20q63 0 100.5 54t37.5 151h243q0 -104 -28.5 -180.5t-79.5 -126.5t-121 -74.5t-152 -24.5q-207 0 -314.5 137t-107.5 427t107 426.5t307 136.5zM477 901q-78 0 -113.5 -64
t-41.5 -182h286q0 118 -31.5 182t-99.5 64zM750 1475l-221 -265h-203l176 271h246z" />
    <glyph glyph-name="ecircumflex" unicode="&#xea;" 
d="M477 1102q195 0 292 -136.5t97 -426.5v-62h-547q1 -72 10.5 -128t29 -94.5t50.5 -58.5t76 -20q63 0 100.5 54t37.5 151h243q0 -104 -28.5 -180.5t-79.5 -126.5t-121 -74.5t-152 -24.5q-207 0 -314.5 137t-107.5 427t107 426.5t307 136.5zM477 901q-78 0 -113.5 -64
t-41.5 -182h286q0 118 -31.5 182t-99.5 64zM743 1204h-184l-91 142l-92 -142h-184l176 277h201z" />
    <glyph glyph-name="edieresis" unicode="&#xeb;" 
d="M477 1102q195 0 292 -136.5t97 -426.5v-62h-547q1 -72 10.5 -128t29 -94.5t50.5 -58.5t76 -20q63 0 100.5 54t37.5 151h243q0 -104 -28.5 -180.5t-79.5 -126.5t-121 -74.5t-152 -24.5q-207 0 -314.5 137t-107.5 427t107 426.5t307 136.5zM477 901q-78 0 -113.5 -64
t-41.5 -182h286q0 118 -31.5 182t-99.5 64zM391 1257h-205v224h205v-224zM749 1257h-205v224h205v-224z" />
    <glyph glyph-name="igrave" unicode="&#xec;" horiz-adv-x="467" 
d="M356 0h-245v1077h245v-1077zM375 1210h-203l-221 265l2 6h246z" />
    <glyph glyph-name="iacute" unicode="&#xed;" horiz-adv-x="467" 
d="M356 0h-245v1077h245v-1077zM517 1475l-221 -265h-203l176 271h246z" />
    <glyph glyph-name="icircumflex" unicode="&#xee;" horiz-adv-x="467" 
d="M356 0h-245v1077h245v-1077zM510 1204h-184l-91 142l-92 -142h-185l177 277h201z" />
    <glyph glyph-name="idieresis" unicode="&#xef;" horiz-adv-x="467" 
d="M356 0h-245v1077h245v-1077zM158 1257h-206v224h206v-224zM516 1257h-205v224h205v-224z" />
    <glyph glyph-name="eth" unicode="&#xf0;" horiz-adv-x="1026" 
d="M528 1481q22 -19 48 -43.5t55 -55.5l266 25v-150l-154 -14q40 -59 76.5 -130.5t64 -158.5t44 -190.5t16.5 -224.5q0 -290 -107.5 -427t-322.5 -137t-322.5 137t-107.5 427q0 139 26 244t74.5 176t117.5 107t155 36q23 0 50 -4.5t50 -12.5l6 9q-15 29 -35.5 61.5
t-42.5 63.5l-264 -23v150l154 14q-31 35 -60 64l-49 49l4 8h258zM514 895q-95 0 -134.5 -81.5t-39.5 -235.5v-78q0 -155 39.5 -236.5t134.5 -81.5t134.5 81.5t39.5 236.5v78q0 154 -39.5 235.5t-134.5 81.5z" />
    <glyph glyph-name="ntilde" unicode="&#xf1;" horiz-adv-x="1026" 
d="M627 1102q62 0 114.5 -18.5t90.5 -59.5t59.5 -107t21.5 -161v-756h-245v688q0 104 -38 147.5t-104 43.5q-36 0 -67 -16.5t-53.5 -46t-35 -68.5t-12.5 -84v-664h-245v1077h204l25 -133h12q21 31 48 60t61 50.5t75 34.5t89 13zM858 1481q0 -42 -11.5 -86.5t-36 -81
t-63 -59.5t-92.5 -23q-37 0 -70.5 12t-66.5 26t-66 26t-67 12q-33 0 -53.5 -17t-26.5 -59h-136q0 42 11.5 86.5t35.5 80.5t62 59.5t92 23.5q38 0 72 -12t67 -26t66 -26t68 -12q32 0 52.5 16t26.5 60h136z" />
    <glyph glyph-name="ograve" unicode="&#xf2;" horiz-adv-x="1026" 
d="M514 1102q215 0 322.5 -136.5t107.5 -426.5t-107.5 -427t-322.5 -137t-322.5 137t-107.5 427t107.5 426.5t322.5 136.5zM514 895q-95 0 -134.5 -81.5t-39.5 -235.5v-78q0 -155 39.5 -236.5t134.5 -81.5t134.5 81.5t39.5 236.5v78q0 154 -39.5 235.5t-134.5 81.5z
M654 1210h-203l-221 265l2 6h246z" />
    <glyph glyph-name="oacute" unicode="&#xf3;" horiz-adv-x="1026" 
d="M514 1102q215 0 322.5 -136.5t107.5 -426.5t-107.5 -427t-322.5 -137t-322.5 137t-107.5 427t107.5 426.5t322.5 136.5zM514 895q-95 0 -134.5 -81.5t-39.5 -235.5v-78q0 -155 39.5 -236.5t134.5 -81.5t134.5 81.5t39.5 236.5v78q0 154 -39.5 235.5t-134.5 81.5z
M796 1475l-221 -265h-203l176 271h246z" />
    <glyph glyph-name="ocircumflex" unicode="&#xf4;" horiz-adv-x="1026" 
d="M514 1102q215 0 322.5 -136.5t107.5 -426.5t-107.5 -427t-322.5 -137t-322.5 137t-107.5 427t107.5 426.5t322.5 136.5zM514 895q-95 0 -134.5 -81.5t-39.5 -235.5v-78q0 -155 39.5 -236.5t134.5 -81.5t134.5 81.5t39.5 236.5v78q0 154 -39.5 235.5t-134.5 81.5z
M789 1204h-184l-91 142l-92 -142h-184l176 277h201z" />
    <glyph glyph-name="otilde" unicode="&#xf5;" horiz-adv-x="1026" 
d="M514 1102q215 0 322.5 -136.5t107.5 -426.5t-107.5 -427t-322.5 -137t-322.5 137t-107.5 427t107.5 426.5t322.5 136.5zM514 895q-95 0 -134.5 -81.5t-39.5 -235.5v-78q0 -155 39.5 -236.5t134.5 -81.5t134.5 81.5t39.5 236.5v78q0 154 -39.5 235.5t-134.5 81.5z
M858 1481q0 -42 -11.5 -86.5t-36 -81t-63 -59.5t-92.5 -23q-37 0 -70.5 12t-66.5 26t-66 26t-67 12q-33 0 -53.5 -17t-26.5 -59h-136q0 42 11.5 86.5t35.5 80.5t62 59.5t92 23.5q38 0 72 -12t67 -26t66 -26t68 -12q32 0 52.5 16t26.5 60h136z" />
    <glyph glyph-name="odieresis" unicode="&#xf6;" horiz-adv-x="1026" 
d="M514 1102q215 0 322.5 -136.5t107.5 -426.5t-107.5 -427t-322.5 -137t-322.5 137t-107.5 427t107.5 426.5t322.5 136.5zM514 895q-95 0 -134.5 -81.5t-39.5 -235.5v-78q0 -155 39.5 -236.5t134.5 -81.5t134.5 81.5t39.5 236.5v78q0 154 -39.5 235.5t-134.5 81.5z
M437 1257h-205v224h205v-224zM795 1257h-205v224h205v-224z" />
    <glyph glyph-name="divide" unicode="&#xf7;" horiz-adv-x="1124" 
d="M1055 416h-987v213h987v-213zM668 84h-213v225h213v-225zM668 735h-213v228h213v-228z" />
    <glyph glyph-name="oslash" unicode="&#xf8;" horiz-adv-x="1026" 
d="M827 977q117 -138 117 -438q0 -290 -107.5 -427t-322.5 -137q-62 0 -113 11t-96 32l-45 -84h-154l93 168q-57 70 -86 177.5t-29 259.5q0 290 107.5 426.5t322.5 136.5q60 0 111 -11t94 -32l45 84h154zM414 217q41 -35 100 -35q95 0 134.5 81.5t39.5 236.5v78
q0 35 -2.5 67.5t-5.5 61.5zM514 895q-95 0 -134.5 -81.5t-39.5 -235.5v-78q0 -70 6 -125l264 487q-38 33 -96 33z" />
    <glyph glyph-name="ugrave" unicode="&#xf9;" horiz-adv-x="1026" 
d="M913 0h-204l-25 133h-12q-21 -32 -48 -60.5t-61 -50t-75 -34.5t-89 -13q-62 0 -114.5 18.5t-90.5 59.5t-59.5 107.5t-21.5 161.5v755h245v-688q0 -104 36.5 -147t105.5 -43q36 0 66.5 16t53 44t35.5 67t13 84v667h245v-1077zM654 1210h-203l-221 265l2 6h246z" />
    <glyph glyph-name="uacute" unicode="&#xfa;" horiz-adv-x="1026" 
d="M913 0h-204l-25 133h-12q-21 -32 -48 -60.5t-61 -50t-75 -34.5t-89 -13q-62 0 -114.5 18.5t-90.5 59.5t-59.5 107.5t-21.5 161.5v755h245v-688q0 -104 36.5 -147t105.5 -43q36 0 66.5 16t53 44t35.5 67t13 84v667h245v-1077zM796 1475l-221 -265h-203l176 271h246z" />
    <glyph glyph-name="ucircumflex" unicode="&#xfb;" horiz-adv-x="1026" 
d="M913 0h-204l-25 133h-12q-21 -32 -48 -60.5t-61 -50t-75 -34.5t-89 -13q-62 0 -114.5 18.5t-90.5 59.5t-59.5 107.5t-21.5 161.5v755h245v-688q0 -104 36.5 -147t105.5 -43q36 0 66.5 16t53 44t35.5 67t13 84v667h245v-1077zM789 1204h-184l-91 142l-92 -142h-184
l176 277h201z" />
    <glyph glyph-name="udieresis" unicode="&#xfc;" horiz-adv-x="1026" 
d="M913 0h-204l-25 133h-12q-21 -32 -48 -60.5t-61 -50t-75 -34.5t-89 -13q-62 0 -114.5 18.5t-90.5 59.5t-59.5 107.5t-21.5 161.5v755h245v-688q0 -104 36.5 -147t105.5 -43q36 0 66.5 16t53 44t35.5 67t13 84v667h245v-1077zM437 1257h-205v224h205v-224zM795 1257h-205
v224h205v-224z" />
    <glyph glyph-name="yacute" unicode="&#xfd;" 
d="M631 55q-26 -87 -59.5 -165t-79 -136.5t-105 -92.5t-137.5 -34q-74 0 -117 8.5t-43 10.5v188h111q52 0 98 38.5t68 127.5l-359 1077h260l162 -506q10 -31 20.5 -78.5t18.5 -92.5q10 -53 18 -109h9q7 53 16 104q8 44 16.5 91.5t18.5 82.5l133 508h246zM750 1475l-221 -265
h-203l176 271h246z" />
    <glyph glyph-name="thorn" unicode="&#xfe;" horiz-adv-x="1026" 
d="M113 1481h245v-527q41 75 102.5 111.5t135.5 36.5q80 0 144 -33.5t109 -102.5t69 -175.5t24 -253.5t-25.5 -253t-70 -175t-105.5 -101.5t-133 -32.5q-81 0 -145.5 35.5t-93.5 100.5h-11v-465h-245v1835zM358 504q0 -146 37.5 -225.5t126.5 -79.5t126.5 77.5t37.5 223.5
v78q0 145 -37.5 223t-126.5 78t-126.5 -78t-37.5 -223v-74z" />
    <glyph glyph-name="ydieresis" unicode="&#xff;" 
d="M631 55q-26 -87 -59.5 -165t-79 -136.5t-105 -92.5t-137.5 -34q-74 0 -117 8.5t-43 10.5v188h111q52 0 98 38.5t68 127.5l-359 1077h260l162 -506q10 -31 20.5 -78.5t18.5 -92.5q10 -53 18 -109h9q7 53 16 104q8 44 16.5 91.5t18.5 82.5l133 508h246zM391 1257h-205v224
h205v-224zM749 1257h-205v224h205v-224z" />
    <glyph glyph-name="Abreve" unicode="&#x102;" horiz-adv-x="1212" 
d="M1210 0h-268l-86 276h-518l-84 -276h-254l453 1405h305zM594 1169q-6 -37 -13 -71q-6 -29 -13 -62t-15 -57l-143 -469h374l-141 469q-8 28 -16 61t-13 62q-7 33 -12 67h-8zM880 1809q0 -39 -19 -78t-54.5 -70.5t-86.5 -51t-115 -19.5q-63 0 -113.5 19.5t-85.5 51
t-54 70.5t-19 78h152q2 -11 11.5 -23t25.5 -22t37 -16.5t46 -6.5q26 0 48 6.5t38 16.5t25.5 22t11.5 23h152z" />
    <glyph glyph-name="Amacron" unicode="&#x100;" horiz-adv-x="1212" 
d="M1210 0h-268l-86 276h-518l-84 -276h-254l453 1405h305zM594 1169q-6 -37 -13 -71q-6 -29 -13 -62t-15 -57l-143 -469h374l-141 469q-8 28 -16 61t-13 62q-7 33 -12 67h-8zM868 1555h-523v178h523v-178z" />
    <glyph glyph-name="Aogonek" unicode="&#x104;" horiz-adv-x="1212" 
d="M1210 0q-9 -11 -19.5 -26.5t-20 -34t-15.5 -40t-6 -42.5q0 -20 5 -38.5t15.5 -33t28 -23.5t43.5 -9h45v-113q-35 -14 -68 -21.5t-67 -7.5q-35 0 -71.5 9t-65.5 30.5t-47.5 57t-18.5 88.5q0 37 8 67.5t21.5 56t31.5 47.5q14 17 28 33h-95l-86 276h-518l-84 -276h-254
l453 1405h305l449 -1396zM594 1169q-6 -37 -13 -71q-6 -29 -13 -62t-15 -57l-143 -469h374l-141 469q-8 28 -16 61t-13 62q-7 33 -12 67h-8z" />
    <glyph glyph-name="Aringacute" unicode="&#x1fa;" horiz-adv-x="1251" 
d="M607 1681q41 0 77 -15.5t62.5 -41.5t41.5 -60.5t15 -72.5q0 -39 -16 -74q-9 -20 -21 -37l444 -1380h-268l-86 276h-518l-84 -276h-254l445 1381q-11 16 -20 35q-15 35 -15 75q0 39 15.5 73.5t42 60.5t62.5 41t77 15zM594 1169q-6 -37 -13 -71q-6 -29 -13 -62t-15 -57
l-143 -469h374l-141 469q-8 28 -16 61t-13 62q-7 33 -12 67h-8zM910 1953l-189 -216h-203l144 222h246zM607 1582q-41 0 -68 -26t-27 -65q0 -40 27 -66t68 -26q19 0 36 7t30 19t20.5 29t7.5 37q0 19 -7.5 36t-20.5 29t-30 19t-36 7z" />
    <glyph glyph-name="Cacute" unicode="&#x106;" horiz-adv-x="1212" 
d="M629 1430q110 0 204.5 -32t163.5 -98.5t108.5 -170t39.5 -246.5h-268q0 81 -18 141.5t-51 100.5t-78.5 59.5t-100.5 19.5q-73 0 -127.5 -31t-90.5 -89t-53.5 -141.5t-17.5 -188.5v-103q0 -105 18 -188.5t55 -141.5t93 -89t131 -31q57 0 103.5 19.5t79.5 59t51 99.5
t18 141h256q0 -138 -39 -240.5t-108 -170t-163.5 -101t-205.5 -33.5q-132 0 -236 44t-176 134t-109.5 226.5t-37.5 322.5t37.5 323t109.5 227t176 134t236 44zM911 1803l-221 -265h-203l176 271h246z" />
    <glyph glyph-name="Ccaron" unicode="&#x10c;" horiz-adv-x="1212" 
d="M629 1430q110 0 204.5 -32t163.5 -98.5t108.5 -170t39.5 -246.5h-268q0 81 -18 141.5t-51 100.5t-78.5 59.5t-100.5 19.5q-73 0 -127.5 -31t-90.5 -89t-53.5 -141.5t-17.5 -188.5v-103q0 -105 18 -188.5t55 -141.5t93 -89t131 -31q57 0 103.5 19.5t79.5 59t51 99.5
t18 141h256q0 -138 -39 -240.5t-108 -170t-163.5 -101t-205.5 -33.5q-132 0 -236 44t-176 134t-109.5 226.5t-37.5 322.5t37.5 323t109.5 227t176 134t236 44zM730 1532h-201l-176 277h184l92 -142l91 142h184z" />
    <glyph glyph-name="Ccircumflex" unicode="&#x108;" horiz-adv-x="1212" 
d="M629 1430q110 0 204.5 -32t163.5 -98.5t108.5 -170t39.5 -246.5h-268q0 81 -18 141.5t-51 100.5t-78.5 59.5t-100.5 19.5q-73 0 -127.5 -31t-90.5 -89t-53.5 -141.5t-17.5 -188.5v-103q0 -105 18 -188.5t55 -141.5t93 -89t131 -31q57 0 103.5 19.5t79.5 59t51 99.5
t18 141h256q0 -138 -39 -240.5t-108 -170t-163.5 -101t-205.5 -33.5q-132 0 -236 44t-176 134t-109.5 226.5t-37.5 322.5t37.5 323t109.5 227t176 134t236 44zM904 1532h-184l-91 142l-92 -142h-184l176 277h201z" />
    <glyph glyph-name="Cdotaccent" unicode="&#x10a;" horiz-adv-x="1212" 
d="M629 1430q110 0 204.5 -32t163.5 -98.5t108.5 -170t39.5 -246.5h-268q0 81 -18 141.5t-51 100.5t-78.5 59.5t-100.5 19.5q-73 0 -127.5 -31t-90.5 -89t-53.5 -141.5t-17.5 -188.5v-103q0 -105 18 -188.5t55 -141.5t93 -89t131 -31q57 0 103.5 19.5t79.5 59t51 99.5
t18 141h256q0 -138 -39 -240.5t-108 -170t-163.5 -101t-205.5 -33.5q-132 0 -236 44t-176 134t-109.5 226.5t-37.5 322.5t37.5 323t109.5 227t176 134t236 44zM738 1573h-219v236h219v-236z" />
    <glyph glyph-name="Dcaron" unicode="&#x10e;" horiz-adv-x="1212" 
d="M621 1532h-201l-176 276h184l92 -141l90 141h185zM123 0v1405h457q131 0 235.5 -43t177 -128.5t111.5 -213t39 -297.5q0 -180 -39 -315.5t-111.5 -226t-177 -136t-235.5 -45.5h-457zM385 1171v-938h170q73 0 131.5 27.5t100 82t63.5 137t22 192.5v102q0 99 -22 173.5
t-63.5 124t-100 74.5t-131.5 25h-170z" />
    <glyph glyph-name="Dcroat" unicode="&#x110;" horiz-adv-x="1212" 
d="M20 813h103v592h457q131 0 235.5 -43t177 -128.5t111.5 -213t39 -297.5q0 -180 -39 -315.5t-111.5 -226t-177 -136t-235.5 -45.5h-457v639h-103v174zM385 1171v-358h256v-174h-256v-406h170q73 0 131.5 27.5t100 82t63.5 137t22 192.5v102q0 99 -22 173.5t-63.5 124
t-100 74.5t-131.5 25h-170z" />
    <glyph glyph-name="Ebreve" unicode="&#x114;" horiz-adv-x="1120" 
d="M834 1808q0 -38 -19 -77t-54.5 -70.5t-86.5 -51.5t-115 -20q-63 0 -113.5 20t-85.5 51.5t-54 70.5t-19 77h151q2 -11 12 -22.5t25.5 -21.5t37 -16.5t46.5 -6.5q26 0 48 6.5t38 16.5t25.5 21.5t11.5 22.5h152zM123 0v1405h895v-234h-633v-335h543v-234h-543v-369h645v-233
h-907z" />
    <glyph glyph-name="Ecaron" unicode="&#x11a;" horiz-adv-x="1120" 
d="M662 1532h-201l-176 276h184l92 -141l90 141h185zM123 0v1405h895v-234h-633v-335h543v-234h-543v-369h645v-233h-907z" />
    <glyph glyph-name="Edotaccent" unicode="&#x116;" horiz-adv-x="1120" 
d="M670 1573h-219v235h219v-235zM123 0v1405h895v-234h-633v-335h543v-234h-543v-369h645v-233h-907z" />
    <glyph glyph-name="Emacron" unicode="&#x112;" horiz-adv-x="1120" 
d="M821 1554h-522v179h522v-179zM123 0v1405h895v-234h-633v-335h543v-234h-543v-369h645v-233h-907z" />
    <glyph glyph-name="Eng" unicode="&#x14a;" horiz-adv-x="1214" 
d="M422 774q-6 11 -16.5 32.5t-21.5 43.5q-12 26 -26 55l-8 -6q1 -23 2 -45q1 -19 1.5 -38.5t0.5 -33.5v-782h-231v1405h231l434 -774q8 -14 19.5 -36t21.5 -43q11 -25 23 -52l6 6q-1 27 -1 50q-1 20 -1 39v28v782h234v-1489q0 -54 -11.5 -105.5t-40 -92.5t-77 -66
t-121.5 -25q-23 0 -48 2t-48.5 6t-44.5 8t-37 9v182h92q48 0 72 25t24 73v68z" />
    <glyph glyph-name="Eogonek" unicode="&#x118;" horiz-adv-x="1120" 
d="M1018 1171h-633v-335h543v-234h-543v-369h645v-233q-9 -11 -19.5 -26.5t-20 -34.5t-15.5 -40t-6 -42q0 -20 5 -39t15.5 -33.5t28 -23.5t43.5 -9h45v-112q-35 -14 -68 -21.5t-67 -7.5q-35 0 -71.5 9t-65.5 30t-47.5 56.5t-18.5 88.5q0 36 7 65.5t19.5 54t29 45.5t34.5 40
h-735v1405h895v-234z" />
    <glyph glyph-name="Gbreve" unicode="&#x11e;" horiz-adv-x="1307" 
d="M666 1430q106 0 203 -33.5t171 -99t118 -162t44 -222.5h-268q0 72 -22 126t-59.5 91t-88 55.5t-107.5 18.5q-82 0 -142 -31t-99 -89t-57.5 -141.5t-18.5 -188.5v-103q0 -107 19 -191t58.5 -141.5t99.5 -87.5t142 -30q60 0 110.5 24t87 68t57 106.5t20.5 139.5h-316v225
h584v-764h-170l-45 156q-68 -90 -165.5 -135.5t-209.5 -45.5q-129 0 -230 43.5t-170 133t-105.5 226.5t-36.5 324q0 186 40 323t116 227t187 134t253 44zM928 1809q0 -39 -19 -78t-54.5 -70.5t-86.5 -51t-115 -19.5q-63 0 -113.5 19.5t-85.5 51t-54 70.5t-19 78h152
q2 -11 11.5 -23t25.5 -22t37 -16.5t46 -6.5q26 0 48 6.5t38 16.5t25.5 22t11.5 23h152z" />
    <glyph glyph-name="Gcircumflex" unicode="&#x11c;" horiz-adv-x="1307" 
d="M666 1430q106 0 203 -33.5t171 -99t118 -162t44 -222.5h-268q0 72 -22 126t-59.5 91t-88 55.5t-107.5 18.5q-82 0 -142 -31t-99 -89t-57.5 -141.5t-18.5 -188.5v-103q0 -107 19 -191t58.5 -141.5t99.5 -87.5t142 -30q60 0 110.5 24t87 68t57 106.5t20.5 139.5h-316v225
h584v-764h-170l-45 156q-68 -90 -165.5 -135.5t-209.5 -45.5q-129 0 -230 43.5t-170 133t-105.5 226.5t-36.5 324q0 186 40 323t116 227t187 134t253 44zM930 1532h-184l-91 142l-92 -142h-184l176 277h201z" />
    <glyph glyph-name="Gcommaaccent" unicode="&#x122;" horiz-adv-x="1307" 
d="M666 1430q106 0 203 -33.5t171 -99t118 -162t44 -222.5h-268q0 72 -22 126t-59.5 91t-88 55.5t-107.5 18.5q-82 0 -142 -31t-99 -89t-57.5 -141.5t-18.5 -188.5v-103q0 -107 19 -191t58.5 -141.5t99.5 -87.5t142 -30q60 0 110.5 24t87 68t57 106.5t20.5 139.5h-316v225
h584v-764h-170l-45 156q-68 -90 -165.5 -135.5t-209.5 -45.5q-129 0 -230 43.5t-170 133t-105.5 226.5t-36.5 324q0 186 40 323t116 227t187 134t253 44zM748 -342l-93 -196h-133l73 173h-100v252h253v-229z" />
    <glyph glyph-name="Gdotaccent" unicode="&#x120;" horiz-adv-x="1307" 
d="M666 1430q106 0 203 -33.5t171 -99t118 -162t44 -222.5h-268q0 72 -22 126t-59.5 91t-88 55.5t-107.5 18.5q-82 0 -142 -31t-99 -89t-57.5 -141.5t-18.5 -188.5v-103q0 -107 19 -191t58.5 -141.5t99.5 -87.5t142 -30q60 0 110.5 24t87 68t57 106.5t20.5 139.5h-316v225
h584v-764h-170l-45 156q-68 -90 -165.5 -135.5t-209.5 -45.5q-129 0 -230 43.5t-170 133t-105.5 226.5t-36.5 324q0 186 40 323t116 227t187 134t253 44zM764 1573h-219v236h219v-236z" />
    <glyph glyph-name="Hbar" unicode="&#x126;" horiz-adv-x="1212" 
d="M1192 1004h-102v-1004h-263v588h-442v-588h-262v1004h-103v178h103v223h262v-223h442v223h263v-223h102v-178zM827 821v183h-442v-183h442z" />
    <glyph glyph-name="Hcircumflex" unicode="&#x124;" horiz-adv-x="1212" 
d="M883 1532h-185l-92 141l-92 -141h-182l176 276h201zM827 602h-442v-602h-262v1405h262v-569h442v569h263v-1405h-263v602z" />
    <glyph glyph-name="IJ" unicode="&#x132;" horiz-adv-x="1401" 
d="M365 0h-263v1405h263v-1405zM745 442v-88q0 -74 35 -113.5t103 -39.5q66 0 99.5 39.5t33.5 113.5v1051h262v-1071q0 -177 -101.5 -268t-293.5 -91q-191 0 -294.5 91.5t-103.5 267.5v108h260z" />
    <glyph glyph-name="Ibreve" unicode="&#x12c;" horiz-adv-x="467" 
d="M365 0h-263v1405h263v-1405zM508 1809q0 -39 -19 -78t-54.5 -70.5t-86.5 -51t-115 -19.5q-63 0 -113.5 19.5t-86 51t-54.5 70.5t-19 78h153q2 -11 11.5 -23t25.5 -22t37 -16.5t46 -6.5q26 0 48 6.5t38 16.5t25.5 22t11.5 23h152z" />
    <glyph glyph-name="Idotaccent" unicode="&#x130;" horiz-adv-x="467" 
d="M365 0h-263v1405h263v-1405zM344 1573h-219v236h219v-236z" />
    <glyph glyph-name="Imacron" unicode="&#x12a;" horiz-adv-x="467" 
d="M365 0h-263v1405h263v-1405zM496 1555h-524v178h524v-178z" />
    <glyph glyph-name="Iogonek" unicode="&#x12e;" horiz-adv-x="467" 
d="M365 0q-9 -11 -19.5 -26.5t-20 -34t-15.5 -40t-6 -42.5q0 -20 5 -38.5t15.5 -33t28 -23.5t43.5 -9h45v-113q-35 -14 -68 -21.5t-67 -7.5q-35 0 -71.5 9t-65.5 30.5t-47.5 57t-18.5 88.5q0 37 8 67.5t21.5 56t31.5 47.5q14 17 28 33h-90v1405h263v-1405z" />
    <glyph glyph-name="Itilde" unicode="&#x128;" horiz-adv-x="467" 
d="M365 0h-263v1405h263v-1405zM579 1809q0 -42 -11.5 -86.5t-36 -81t-63 -59.5t-92.5 -23q-37 0 -70.5 12t-66.5 26t-66 26t-67 12q-33 0 -53.5 -17t-26.5 -59h-137q0 42 11.5 86.5t35.5 80.5t62.5 59.5t92.5 23.5q38 0 72 -12t67 -26t66 -26t68 -12q32 0 52.5 16t26.5 60
h136z" />
    <glyph glyph-name="Jcircumflex" unicode="&#x134;" 
d="M981 1532h-182l-92 141l-93 -141h-184l176 276h203zM279 442v-88q0 -74 34.5 -113.5t102.5 -39.5q66 0 99.5 39.5t33.5 113.5v1051h262v-1071q0 -177 -101.5 -268t-293.5 -91q-191 0 -294.5 91.5t-103.5 267.5v108h261z" />
    <glyph glyph-name="Kcommaaccent" unicode="&#x136;" horiz-adv-x="1212" 
d="M733 -342l-94 -197h-131l72 174h-101v252h254v-229zM387 686l514 719h293l-416 -571l428 -834h-295l-305 627l-219 -269v-358h-264v1405h264v-719z" />
    <glyph glyph-name="Lacute" unicode="&#x139;" horiz-adv-x="1026" 
d="M543 1802l-221 -264h-203l176 270h246zM123 1405h262v-1159h594v-246h-856v1405z" />
    <glyph glyph-name="Lcaron" unicode="&#x13d;" horiz-adv-x="1026" 
d="M979 1149l-135 -344h-148l113 319h-113v281h283v-256zM123 1405h262v-1159h594v-246h-856v1405z" />
    <glyph glyph-name="Lcommaaccent" unicode="&#x13b;" horiz-adv-x="1026" 
d="M639 -342l-92 -197h-133l73 174h-100v252h252v-229zM123 1405h262v-1159h594v-246h-856v1405z" />
    <glyph glyph-name="Ldot" unicode="&#x13f;" horiz-adv-x="1026" 
d="M860 838h-219v235h219v-235zM123 1405h262v-1159h594v-246h-856v1405z" />
    <glyph glyph-name="Lslash" unicode="&#x141;" horiz-adv-x="1026" 
d="M623 928l-238 -211v-471h594v-246h-856v485l-123 -108v194l123 109v725h262v-492l238 213v-198z" />
    <glyph glyph-name="Nacute" unicode="&#x143;" horiz-adv-x="1212" 
d="M889 1802l-221 -264h-203l176 270h246zM856 0l-434 774q-6 11 -16.5 32.5t-21.5 43.5q-12 26 -26 55l-8 -6q1 -23 2 -45q1 -19 1.5 -38.5t0.5 -33.5v-782h-231v1405h231l434 -774q8 -14 19.5 -36t21.5 -43q11 -25 23 -52l6 6q-1 27 -1 50q-1 20 -1 39v28v782h234v-1405
h-234z" />
    <glyph glyph-name="Ncaron" unicode="&#x147;" horiz-adv-x="1212" 
d="M709 1532h-201l-176 276h182l92 -141l92 141h185zM856 0l-434 774q-6 11 -16.5 32.5t-21.5 43.5q-12 26 -26 55l-8 -6q1 -23 2 -45q1 -19 1.5 -38.5t0.5 -33.5v-782h-231v1405h231l434 -774q8 -14 19.5 -36t21.5 -43q11 -25 23 -52l6 6q-1 27 -1 50q-1 20 -1 39v28v782
h234v-1405h-234z" />
    <glyph glyph-name="Ncommaaccent" unicode="&#x145;" horiz-adv-x="1212" 
d="M733 -342l-94 -197h-131l72 174h-101v252h254v-229zM856 0l-434 774q-6 11 -16.5 32.5t-21.5 43.5q-12 26 -26 55l-8 -6q1 -23 2 -45q1 -19 1.5 -38.5t0.5 -33.5v-782h-231v1405h231l434 -774q8 -14 19.5 -36t21.5 -43q11 -25 23 -52l6 6q-1 27 -1 50q-1 20 -1 39v28v782
h234v-1405h-234z" />
    <glyph glyph-name="Obreve" unicode="&#x14e;" horiz-adv-x="1307" 
d="M653 1430q136 0 244.5 -44t184 -134t115.5 -227t40 -323t-40 -322.5t-115.5 -226.5t-184 -134t-244.5 -44t-244 44t-183.5 134t-115.5 226.5t-40 322.5t40 323t115.5 227t183.5 134t244 44zM653 1204q-78 0 -137 -31t-98 -89t-58.5 -141.5t-19.5 -188.5v-103
q0 -105 19.5 -188.5t58.5 -141.5t98 -89t137 -31t137 31t98.5 89t59 141.5t19.5 188.5v103q0 105 -19.5 188.5t-59 141.5t-98.5 89t-137 31zM928 1809q0 -39 -19 -78t-54.5 -70.5t-86.5 -51t-115 -19.5q-63 0 -113.5 19.5t-85.5 51t-54 70.5t-19 78h152q2 -11 11.5 -23
t25.5 -22t37 -16.5t46 -6.5q26 0 48 6.5t38 16.5t25.5 22t11.5 23h152z" />
    <glyph glyph-name="Ohungarumlaut" unicode="&#x150;" horiz-adv-x="1307" 
d="M653 1430q136 0 244.5 -44t184 -134t115.5 -227t40 -323t-40 -322.5t-115.5 -226.5t-184 -134t-244.5 -44t-244 44t-183.5 134t-115.5 226.5t-40 322.5t40 323t115.5 227t183.5 134t244 44zM653 1204q-78 0 -137 -31t-98 -89t-58.5 -141.5t-19.5 -188.5v-103
q0 -105 19.5 -188.5t58.5 -141.5t98 -89t137 -31t137 31t98.5 89t59 141.5t19.5 188.5v103q0 105 -19.5 188.5t-59 141.5t-98.5 89t-137 31zM757 1803l-172 -265h-162l127 271h205zM1044 1803l-172 -265h-162l127 271h205z" />
    <glyph glyph-name="Omacron" unicode="&#x14c;" horiz-adv-x="1307" 
d="M653 1430q136 0 244.5 -44t184 -134t115.5 -227t40 -323t-40 -322.5t-115.5 -226.5t-184 -134t-244.5 -44t-244 44t-183.5 134t-115.5 226.5t-40 322.5t40 323t115.5 227t183.5 134t244 44zM653 1204q-78 0 -137 -31t-98 -89t-58.5 -141.5t-19.5 -188.5v-103
q0 -105 19.5 -188.5t58.5 -141.5t98 -89t137 -31t137 31t98.5 89t59 141.5t19.5 188.5v103q0 105 -19.5 188.5t-59 141.5t-98.5 89t-137 31zM916 1555h-523v178h523v-178z" />
    <glyph glyph-name="Oslashacute" unicode="&#x1fe;" horiz-adv-x="1307" 
d="M1081 1249q76 -90 116 -225.5t40 -321.5t-40 -322.5t-115.5 -226.5t-184 -134t-244.5 -44q-184 0 -317 80l-82 -131h-172l143 230q-75 89 -115 225.5t-40 322.5t40 323t115.5 227t183.5 134t244 44q187 0 318 -82l84 133h172zM467 264q72 -63 186 -63q78 0 137 31
t98.5 89t59 141.5t19.5 188.5v103q0 72 -9.5 135.5t-29.5 114.5zM653 1204q-78 0 -137 -31t-98 -89t-58.5 -141.5t-19.5 -188.5v-103q0 -74 9 -137.5t28 -116.5l463 742q-71 65 -187 65zM937 1803l-221 -265h-203l176 271h246z" />
    <glyph glyph-name="Racute" unicode="&#x154;" horiz-adv-x="1212" 
d="M889 1802l-221 -264h-203l176 270h246zM385 586v-586h-262v1405h588q106 0 186.5 -30t134.5 -83.5t81.5 -127t27.5 -160.5q0 -64 -16.5 -120t-47 -102t-74 -81.5t-98.5 -57.5l271 -643h-285l-234 586h-272zM385 1171v-354h289q96 0 140 49.5t44 137.5q0 77 -41.5 122
t-132.5 45h-299z" />
    <glyph glyph-name="Rcaron" unicode="&#x158;" horiz-adv-x="1212" 
d="M709 1532h-201l-176 276h182l92 -141l92 141h185zM385 586v-586h-262v1405h588q106 0 186.5 -30t134.5 -83.5t81.5 -127t27.5 -160.5q0 -64 -16.5 -120t-47 -102t-74 -81.5t-98.5 -57.5l271 -643h-285l-234 586h-272zM385 1171v-354h289q96 0 140 49.5t44 137.5
q0 77 -41.5 122t-132.5 45h-299z" />
    <glyph glyph-name="Rcommaaccent" unicode="&#x156;" horiz-adv-x="1212" 
d="M733 -342l-94 -197h-131l72 174h-101v252h254v-229zM385 586v-586h-262v1405h588q106 0 186.5 -30t134.5 -83.5t81.5 -127t27.5 -160.5q0 -64 -16.5 -120t-47 -102t-74 -81.5t-98.5 -57.5l271 -643h-285l-234 586h-272zM385 1171v-354h289q96 0 140 49.5t44 137.5
q0 77 -41.5 122t-132.5 45h-299z" />
    <glyph glyph-name="Sacute" unicode="&#x15a;" horiz-adv-x="1120" 
d="M559 1430q94 0 177 -24t145 -74.5t98.5 -129t36.5 -186.5v-25h-268v19q0 89 -50.5 141.5t-140.5 52.5q-96 0 -146.5 -42t-50.5 -107q0 -53 29.5 -87.5t77.5 -59t109 -43t125 -40.5t125 -51.5t109 -75t77.5 -112.5t29.5 -164q0 -121 -36.5 -206t-102 -138.5t-156.5 -78
t-200 -24.5q-97 0 -185 27.5t-155 82.5t-106.5 137t-39.5 190q0 12 1 24.5t1 20.5h273q0 -3 -1 -14t-1 -19q0 -50 15 -91t44 -70.5t70.5 -45.5t95.5 -16q59 0 100 14.5t66 38t36 53t11 60.5q0 50 -19 85.5t-52 61t-76.5 44t-92.5 35t-101 33.5t-101 39.5t-92.5 53.5
t-76.5 74.5t-52 103t-19 139.5q0 100 38.5 174t103 123t149.5 73t178 24zM843 1803l-221 -265h-203l176 271h246z" />
    <glyph glyph-name="Scedilla" unicode="&#x15e;" horiz-adv-x="1120" 
d="M596 -68q33 -2 62.5 -11t51.5 -25.5t35 -42t13 -60.5q0 -51 -22.5 -83.5t-56 -51t-72.5 -25t-72 -6.5q-44 0 -89.5 4.5t-82.5 12.5v100h145q34 0 54 10t20 39q0 25 -15 37t-55 12h-67l17 139q-52 7 -100 21q-88 28 -155 83t-106.5 137t-39.5 190q0 12 1 24.5t1 20.5h273
q0 -3 -1 -14t-1 -19q0 -50 15 -91t44 -70.5t70.5 -45.5t95.5 -16q59 0 100 14.5t66 38t36 53t11 60.5q0 50 -19 85.5t-52 61t-76.5 44t-92.5 35t-101 33.5t-101 39.5t-92.5 53.5t-76.5 74.5t-52 103t-19 139.5q0 100 38.5 174t103 123t149.5 73t178 24q94 0 177 -24
t145 -74.5t98.5 -129t36.5 -186.5v-25h-268v19q0 89 -50.5 141.5t-140.5 52.5q-96 0 -146.5 -42t-50.5 -107q0 -53 29.5 -87.5t77.5 -59t109 -43t125 -40.5t125 -51.5t109 -75t77.5 -112.5t29.5 -164q0 -121 -36.5 -206t-102 -138.5t-156.5 -77.5q-68 -19 -146 -23z" />
    <glyph glyph-name="Scircumflex" unicode="&#x15c;" horiz-adv-x="1120" 
d="M559 1430q94 0 177 -24t145 -74.5t98.5 -129t36.5 -186.5v-25h-268v19q0 89 -50.5 141.5t-140.5 52.5q-96 0 -146.5 -42t-50.5 -107q0 -53 29.5 -87.5t77.5 -59t109 -43t125 -40.5t125 -51.5t109 -75t77.5 -112.5t29.5 -164q0 -121 -36.5 -206t-102 -138.5t-156.5 -78
t-200 -24.5q-97 0 -185 27.5t-155 82.5t-106.5 137t-39.5 190q0 12 1 24.5t1 20.5h273q0 -3 -1 -14t-1 -19q0 -50 15 -91t44 -70.5t70.5 -45.5t95.5 -16q59 0 100 14.5t66 38t36 53t11 60.5q0 50 -19 85.5t-52 61t-76.5 44t-92.5 35t-101 33.5t-101 39.5t-92.5 53.5
t-76.5 74.5t-52 103t-19 139.5q0 100 38.5 174t103 123t149.5 73t178 24zM836 1532h-184l-91 142l-92 -142h-184l176 277h201z" />
    <glyph glyph-name="Tbar" unicode="&#x166;" horiz-adv-x="1026" 
d="M875 626h-230v-626h-262v626h-231v178h231v367h-348v234h958v-234h-348v-367h230v-178z" />
    <glyph glyph-name="Tcaron" unicode="&#x164;" horiz-adv-x="1026" 
d="M993 1171h-348v-1171h-262v1171h-348v234h958v-234zM615 1532h-201l-176 277h184l92 -142l91 142h184z" />
    <glyph glyph-name="Tcommaaccent" unicode="&#x162;" horiz-adv-x="1026" 
d="M993 1171h-348v-1171h-262v1171h-348v234h958v-234zM640 -342l-93 -196h-133l73 173h-100v252h253v-229z" />
    <glyph glyph-name="Ubreve" unicode="&#x16c;" horiz-adv-x="1212" 
d="M881 1808q0 -38 -19.5 -77t-55.5 -70.5t-87 -51.5t-115 -20q-63 0 -113 20t-85 51.5t-53.5 70.5t-18.5 77h151q3 -11 12.5 -22.5t25 -21.5t36.5 -16.5t45 -6.5q27 0 49.5 6.5t38.5 16.5t25 21.5t10 22.5h154zM125 1405h262v-956q0 -122 57 -185t162 -63t163 63t58 185
v956h263v-965q0 -114 -33.5 -201t-96 -145.5t-152 -88.5t-202.5 -30t-202 30t-151 88.5t-95 145.5t-33 201v965z" />
    <glyph glyph-name="Uhungarumlaut" unicode="&#x170;" horiz-adv-x="1212" 
d="M709 1802l-172 -264h-162l127 270h205zM995 1802l-172 -264h-161l126 270h205zM125 1405h262v-956q0 -122 57 -185t162 -63t163 63t58 185v956h263v-965q0 -114 -33.5 -201t-96 -145.5t-152 -88.5t-202.5 -30t-202 30t-151 88.5t-95 145.5t-33 201v965z" />
    <glyph glyph-name="Umacron" unicode="&#x16a;" horiz-adv-x="1212" 
d="M868 1554h-524v179h524v-179zM125 1405h262v-956q0 -122 57 -185t162 -63t163 63t58 185v956h263v-965q0 -114 -33.5 -201t-96 -145.5t-152 -88.5t-202.5 -30t-202 30t-151 88.5t-95 145.5t-33 201v965z" />
    <glyph glyph-name="Uogonek" unicode="&#x172;" horiz-adv-x="1212" 
d="M1090 457q0 -175 -68 -287t-193 -160q-9 -11 -19.5 -26.5t-20 -34t-15.5 -40t-6 -42.5q0 -20 5 -39t16 -33.5t28.5 -23.5t42.5 -9h45v-112q-35 -14 -68 -21.5t-67 -7.5q-35 0 -71.5 9t-65.5 30t-47.5 56.5t-18.5 88.5q0 56 17 97t43 73h-21q-113 0 -202 31t-151 91.5
t-95 150.5t-33 209v948h262v-940q0 -130 57 -197t162 -67t163 67t58 197v940h263v-948z" />
    <glyph glyph-name="Uring" unicode="&#x16e;" horiz-adv-x="1212" 
d="M606 1870q42 0 78 -15.5t62.5 -42.5t41.5 -63t15 -76q0 -41 -15.5 -76.5t-42 -62t-62.5 -42t-77 -15.5q-40 0 -75.5 15t-62.5 41.5t-42.5 62.5t-15.5 77t15.5 77t42 62.5t62 42t76.5 15.5zM606 1767q-40 0 -67 -27t-27 -67t27 -67t67 -27q19 0 36 7t30 20t20.5 30t7.5 37
t-7.5 37t-20.5 30t-30 20t-36 7zM125 1405h262v-956q0 -122 57 -185t162 -63t163 63t58 185v956h263v-965q0 -114 -33.5 -201t-96 -145.5t-152 -88.5t-202.5 -30t-202 30t-151 88.5t-95 145.5t-33 201v965z" />
    <glyph glyph-name="Utilde" unicode="&#x168;" horiz-adv-x="1212" 
d="M950 1808q0 -42 -11 -86t-35.5 -80.5t-63 -59.5t-92.5 -23q-37 0 -71 11.5t-67 26t-66 26t-67 11.5q-32 0 -52.5 -16.5t-27.5 -58.5h-135q0 42 11 86t35.5 80.5t62.5 59.5t92 23q37 0 71.5 -11.5t67.5 -26t65.5 -26t67.5 -11.5q32 0 53 16t27 59h135zM125 1405h262v-956
q0 -122 57 -185t162 -63t163 63t58 185v956h263v-965q0 -114 -33.5 -201t-96 -145.5t-152 -88.5t-202.5 -30t-202 30t-151 88.5t-95 145.5t-33 201v965z" />
    <glyph glyph-name="Wacute" unicode="&#x1e82;" horiz-adv-x="1585" 
d="M1278 0h-264l-191 895q-6 27 -11 61t-9 65q-4 36 -8 73h-9q-6 -40 -10 -77q-5 -32 -9 -66t-9 -56l-189 -895h-264l-305 1405h260l168 -864q5 -23 9.5 -57t8.5 -65q4 -37 9 -75h8q4 39 8 76q4 32 8.5 65t9.5 56l170 864h297l168 -864q4 -21 9 -54.5t9 -65.5q4 -37 9 -77h8
l8 72q4 30 8.5 64.5t10.5 60.5l172 864h225zM1076 1803l-221 -265h-203l176 271h246z" />
    <glyph glyph-name="Wcircumflex" unicode="&#x174;" horiz-adv-x="1585" 
d="M1278 0h-264l-191 895q-6 27 -11 61t-9 65q-4 36 -8 73h-9q-6 -40 -10 -77q-5 -32 -9 -66t-9 -56l-189 -895h-264l-305 1405h260l168 -864q5 -23 9.5 -57t8.5 -65q4 -37 9 -75h8q4 39 8 76q4 32 8.5 65t9.5 56l170 864h297l168 -864q4 -21 9 -54.5t9 -65.5q4 -37 9 -77h8
l8 72q4 30 8.5 64.5t10.5 60.5l172 864h225zM1069 1532h-184l-91 142l-92 -142h-184l176 277h201z" />
    <glyph glyph-name="Wdieresis" unicode="&#x1e84;" horiz-adv-x="1585" 
d="M1278 0h-264l-191 895q-6 27 -11 61t-9 65q-4 36 -8 73h-9q-6 -40 -10 -77q-5 -32 -9 -66t-9 -56l-189 -895h-264l-305 1405h260l168 -864q5 -23 9.5 -57t8.5 -65q4 -37 9 -75h8q4 39 8 76q4 32 8.5 65t9.5 56l170 864h297l168 -864q4 -21 9 -54.5t9 -65.5q4 -37 9 -77h8
l8 72q4 30 8.5 64.5t10.5 60.5l172 864h225zM1075 1585h-205v224h205v-224zM717 1585h-205v224h205v-224z" />
    <glyph glyph-name="Wgrave" unicode="&#x1e80;" horiz-adv-x="1585" 
d="M1278 0h-264l-191 895q-6 27 -11 61t-9 65q-4 36 -8 73h-9q-6 -40 -10 -77q-5 -32 -9 -66t-9 -56l-189 -895h-264l-305 1405h260l168 -864q5 -23 9.5 -57t8.5 -65q4 -37 9 -75h8q4 39 8 76q4 32 8.5 65t9.5 56l170 864h297l168 -864q4 -21 9 -54.5t9 -65.5q4 -37 9 -77h8
l8 72q4 30 8.5 64.5t10.5 60.5l172 864h225zM934 1538h-203l-221 265l2 6h246z" />
    <glyph glyph-name="Ycircumflex" unicode="&#x176;" horiz-adv-x="1120" 
d="M692 530v-530h-262v530l-430 875h276l287 -617h8l285 617h264zM836 1532h-184l-91 142l-92 -142h-184l176 277h201z" />
    <glyph glyph-name="Ygrave" unicode="&#x1ef2;" horiz-adv-x="1120" 
d="M692 530v-530h-262v530l-430 875h276l287 -617h8l285 617h264zM701 1538h-203l-221 265l2 6h246z" />
    <glyph glyph-name="Zacute" unicode="&#x179;" horiz-adv-x="1026" 
d="M969 1303l-578 -1070h592v-233h-950v100l577 1071h-534v234h893v-102zM796 1803l-221 -265h-203l176 271h246z" />
    <glyph glyph-name="Zdotaccent" unicode="&#x17b;" horiz-adv-x="1026" 
d="M969 1303l-578 -1070h592v-233h-950v100l577 1071h-534v234h893v-102zM623 1573h-219v236h219v-236z" />
    <glyph glyph-name="abreve" unicode="&#x103;" 
d="M444 1102q187 0 277 -83.5t90 -234.5v-530q0 -38 18 -55t39 -17h50v-174q-20 -11 -55 -22t-91 -11q-74 0 -123 39.5t-67 102.5h-11q-23 -32 -48 -58.5t-57 -45t-72.5 -28.5t-94.5 -10q-38 0 -84.5 12.5t-88 46t-69.5 92.5t-28 153q0 109 39.5 181t110 115.5t169 61.5
t215.5 18v113q0 28 -4.5 52t-16.5 42t-34 28.5t-57 10.5q-38 0 -63 -10.5t-39.5 -26.5t-20.5 -36.5t-6 -39.5v-30h-240q-2 9 -2 20v25q0 67 26 122.5t73.5 94.5t114.5 60.5t150 21.5zM718 1481q0 -39 -19 -78t-54.5 -70.5t-86.5 -51t-115 -19.5q-63 0 -113.5 19.5t-85.5 51
t-54 70.5t-19 78h152q2 -11 11.5 -23t25.5 -22t37 -16.5t46 -6.5q26 0 48 6.5t38 16.5t25.5 22t11.5 23h152zM563 477q-54 0 -104.5 -8t-90 -28t-63.5 -54t-24 -86q0 -56 28.5 -88.5t91.5 -32.5q44 0 74.5 19t50 51.5t28.5 75t9 90.5v61z" />
    <glyph glyph-name="aeacute" unicode="&#x1fd;" horiz-adv-x="1493" 
d="M1024 1102q195 0 292 -136.5t97 -426.5v-62h-547q1 -72 10 -128t28.5 -94.5t51 -58.5t76.5 -20q63 0 100 54t37 151h244q0 -104 -28.5 -180.5t-79.5 -126.5t-121 -74.5t-152 -24.5q-108 0 -188.5 36t-132.5 110q-29 -32 -62.5 -59t-72.5 -46.5t-86 -30t-103 -10.5
q-44 0 -98 12.5t-101.5 46t-79.5 92.5t-32 153q0 109 39.5 181t110 115.5t169 61.5t215.5 18v113q0 28 -4.5 52t-16.5 42t-34 28.5t-57 10.5q-38 0 -63 -10.5t-39.5 -26.5t-20.5 -36.5t-6 -39.5v-30h-240q-2 9 -2 20v25q0 67 26 122.5t73.5 94.5t115 60.5t150.5 21.5
q92 0 161 -26.5t115 -76.5q50 53 114 78t142 25zM610 477q-54 0 -104.5 -8t-90 -28t-63.5 -54t-24 -86q0 -56 29 -88.5t92 -32.5q43 0 74 19t50 51.5t28 75t9 90.5v61zM1030 1475l-221 -265h-203l176 271h246zM1024 901q-78 0 -113.5 -64t-42.5 -182h287q0 118 -31.5 182
t-99.5 64z" />
    <glyph glyph-name="amacron" unicode="&#x101;" 
d="M444 1102q187 0 277 -83.5t90 -234.5v-530q0 -38 18 -55t39 -17h50v-174q-20 -11 -55 -22t-91 -11q-74 0 -123 39.5t-67 102.5h-11q-23 -32 -48 -58.5t-57 -45t-72.5 -28.5t-94.5 -10q-38 0 -84.5 12.5t-88 46t-69.5 92.5t-28 153q0 109 39.5 181t110 115.5t169 61.5
t215.5 18v113q0 28 -4.5 52t-16.5 42t-34 28.5t-57 10.5q-38 0 -63 -10.5t-39.5 -26.5t-20.5 -36.5t-6 -39.5v-30h-240q-2 9 -2 20v25q0 67 26 122.5t73.5 94.5t114.5 60.5t150 21.5zM706 1227h-523v178h523v-178zM563 477q-54 0 -104.5 -8t-90 -28t-63.5 -54t-24 -86
q0 -56 28.5 -88.5t91.5 -32.5q44 0 74.5 19t50 51.5t28.5 75t9 90.5v61z" />
    <glyph glyph-name="aogonek" unicode="&#x105;" 
d="M918 8q-9 -11 -19.5 -26.5t-20 -34t-15.5 -40t-6 -42.5q0 -20 5 -38.5t15.5 -33t28 -23.5t43.5 -9h45v-113q-35 -14 -68 -21.5t-67 -7.5q-35 0 -71.5 9t-65.5 30.5t-47.5 57t-18.5 88.5q0 37 8 67.5t21.5 56t31.5 47.5l4 6q-41 9 -72 33q-49 40 -67 103h-11
q-23 -32 -48 -58.5t-57 -45t-72.5 -28.5t-94.5 -10q-38 0 -84.5 12.5t-88 46t-69.5 92.5t-28 153q0 109 39.5 181t110 115.5t169 61.5t215.5 18v113q0 28 -4.5 52t-16.5 42t-34 28.5t-57 10.5q-38 0 -63 -10.5t-39.5 -26.5t-20.5 -36.5t-6 -39.5v-30h-240q-2 9 -2 20v25
q0 67 26 122.5t73.5 94.5t114.5 60.5t150 21.5q187 0 277 -83.5t90 -234.5v-530q0 -38 18 -55t39 -17h50v-174zM563 477q-54 0 -104.5 -8t-90 -28t-63.5 -54t-24 -86q0 -56 28.5 -88.5t91.5 -32.5q44 0 74.5 19t50 51.5t28.5 75t9 90.5v61z" />
    <glyph glyph-name="aringacute" unicode="&#x1fb;" horiz-adv-x="1024" 
d="M444 1102q187 0 277 -83.5t90 -234.5v-530q0 -38 18 -55t39 -17h50v-174q-20 -11 -55 -22t-91 -11q-74 0 -123 39.5t-67 102.5h-11q-23 -32 -48 -58.5t-57 -45t-72.5 -28.5t-94.5 -10q-38 0 -84.5 12.5t-88 46t-69.5 92.5t-28 153q0 109 39.5 181t110 115.5t169 61.5
t215.5 18v113q0 28 -4.5 52t-16.5 42t-34 28.5t-57 10.5q-38 0 -63 -10.5t-39.5 -26.5t-20.5 -36.5t-6 -39.5v-30h-240q-2 9 -2 20v25q0 67 26 122.5t73.5 94.5t114.5 60.5t150 21.5zM445 1529q41 0 77 -15t62.5 -41t41.5 -60.5t15 -73.5t-15.5 -74t-42 -60.5t-62.5 -40.5
t-76 -15t-76 14.5t-63 40t-42.5 60.5t-15.5 75q0 39 15.5 74t42 60.5t62.5 40.5t77 15zM563 477q-54 0 -104.5 -8t-90 -28t-63.5 -54t-24 -86q0 -56 28.5 -88.5t91.5 -32.5q44 0 74.5 19t50 51.5t28.5 75t9 90.5v61zM757 1803l-198 -230h-203l153 236h246zM445 1430
q-41 0 -68 -26t-27 -65t27 -65t68 -26q19 0 36 7t30 19t20.5 28.5t7.5 36.5q0 19 -7.5 36t-20.5 29t-30 19t-36 7z" />
    <glyph glyph-name="cacute" unicode="&#x107;" 
d="M483 1102q86 0 156 -25t119 -77.5t75.5 -133.5t26.5 -194h-252q0 114 -31 168.5t-94 54.5q-78 0 -110.5 -81t-32.5 -236v-78q0 -155 34.5 -236.5t117.5 -81.5q66 0 95 56t29 168h244q0 -113 -26 -194.5t-74 -134t-116 -77.5t-152 -25q-105 0 -182 33.5t-127.5 103
t-74.5 176t-24 251.5q0 290 99.5 426.5t299.5 136.5zM769 1475l-221 -265h-203l176 271h246z" />
    <glyph glyph-name="ccaron" unicode="&#x10d;" 
d="M483 1102q86 0 156 -25t119 -77.5t75.5 -133.5t26.5 -194h-252q0 114 -31 168.5t-94 54.5q-78 0 -110.5 -81t-32.5 -236v-78q0 -155 34.5 -236.5t117.5 -81.5q66 0 95 56t29 168h244q0 -113 -26 -194.5t-74 -134t-116 -77.5t-152 -25q-105 0 -182 33.5t-127.5 103
t-74.5 176t-24 251.5q0 290 99.5 426.5t299.5 136.5zM588 1204h-201l-176 277h184l92 -142l91 142h184z" />
    <glyph glyph-name="ccircumflex" unicode="&#x109;" 
d="M483 1102q86 0 156 -25t119 -77.5t75.5 -133.5t26.5 -194h-252q0 114 -31 168.5t-94 54.5q-78 0 -110.5 -81t-32.5 -236v-78q0 -155 34.5 -236.5t117.5 -81.5q66 0 95 56t29 168h244q0 -113 -26 -194.5t-74 -134t-116 -77.5t-152 -25q-105 0 -182 33.5t-127.5 103
t-74.5 176t-24 251.5q0 290 99.5 426.5t299.5 136.5zM762 1204h-184l-91 142l-92 -142h-184l176 277h201z" />
    <glyph glyph-name="cdotaccent" unicode="&#x10b;" 
d="M483 1102q86 0 156 -25t119 -77.5t75.5 -133.5t26.5 -194h-252q0 114 -31 168.5t-94 54.5q-78 0 -110.5 -81t-32.5 -236v-78q0 -155 34.5 -236.5t117.5 -81.5q66 0 95 56t29 168h244q0 -113 -26 -194.5t-74 -134t-116 -77.5t-152 -25q-105 0 -182 33.5t-127.5 103
t-74.5 176t-24 251.5q0 290 99.5 426.5t299.5 136.5zM596 1245h-219v236h219v-236z" />
    <glyph glyph-name="dcaron" unicode="&#x10f;" horiz-adv-x="1206" 
d="M913 0h-204l-25 133h-10q-40 -78 -103.5 -118t-140.5 -40q-80 0 -144 33.5t-109 103t-69 176t-24 253.5t25.5 253t70 174.5t105.5 101t133 32.5q81 0 145.5 -35t93.5 -100h11v514h245v-1481zM504 879q-89 0 -126.5 -78t-37.5 -223v-78q0 -146 37.5 -223.5t126.5 -77.5
t126.5 77.5t37.5 223.5v73q0 73 -9 130t-28.5 96t-50.5 59.5t-76 20.5zM1259 1149l-135 -344h-148l113 319h-113v281h283v-256z" />
    <glyph glyph-name="dcroat" unicode="&#x111;" horiz-adv-x="1032" 
d="M1025 1194h-112v-1194h-204l-25 133h-10q-40 -78 -103.5 -118t-140.5 -40q-80 0 -144 33.5t-109 103t-69 176t-24 253.5t25.5 253t70 174.5t105.5 101t133 32.5q81 0 145.5 -35t93.5 -100h11v227h-270v178h270v109h245v-109h112v-178zM504 879q-89 0 -126.5 -78
t-37.5 -223v-78q0 -146 37.5 -223.5t126.5 -77.5t126.5 77.5t37.5 223.5v73q0 73 -9 130t-28.5 96t-50.5 59.5t-76 20.5z" />
    <glyph glyph-name="dotlessi" unicode="&#x131;" horiz-adv-x="467" 
d="M356 0h-245v1077h245v-1077z" />
    <glyph glyph-name="ebreve" unicode="&#x115;" 
d="M477 1102q195 0 292 -136.5t97 -426.5v-62h-547q1 -72 10.5 -128t29 -94.5t50.5 -58.5t76 -20q63 0 100.5 54t37.5 151h243q0 -104 -28.5 -180.5t-79.5 -126.5t-121 -74.5t-152 -24.5q-207 0 -314.5 137t-107.5 427t107 426.5t307 136.5zM477 901q-78 0 -113.5 -64
t-41.5 -182h286q0 118 -31.5 182t-99.5 64zM741 1481q0 -39 -19 -78t-54.5 -70.5t-86.5 -51t-115 -19.5q-63 0 -113.5 19.5t-85.5 51t-54 70.5t-19 78h152q2 -11 11.5 -23t25.5 -22t37 -16.5t46 -6.5q26 0 48 6.5t38 16.5t25.5 22t11.5 23h152z" />
    <glyph glyph-name="ecaron" unicode="&#x11b;" 
d="M477 1102q195 0 292 -136.5t97 -426.5v-62h-547q1 -72 10.5 -128t29 -94.5t50.5 -58.5t76 -20q63 0 100.5 54t37.5 151h243q0 -104 -28.5 -180.5t-79.5 -126.5t-121 -74.5t-152 -24.5q-207 0 -314.5 137t-107.5 427t107 426.5t307 136.5zM477 901q-78 0 -113.5 -64
t-41.5 -182h286q0 118 -31.5 182t-99.5 64zM569 1204h-201l-176 277h184l92 -142l91 142h184z" />
    <glyph glyph-name="edotaccent" unicode="&#x117;" 
d="M477 1102q195 0 292 -136.5t97 -426.5v-62h-547q1 -72 10.5 -128t29 -94.5t50.5 -58.5t76 -20q63 0 100.5 54t37.5 151h243q0 -104 -28.5 -180.5t-79.5 -126.5t-121 -74.5t-152 -24.5q-207 0 -314.5 137t-107.5 427t107 426.5t307 136.5zM477 901q-78 0 -113.5 -64
t-41.5 -182h286q0 118 -31.5 182t-99.5 64zM577 1245h-219v236h219v-236z" />
    <glyph glyph-name="emacron" unicode="&#x113;" 
d="M477 1102q195 0 292 -136.5t97 -426.5v-62h-547q1 -72 10.5 -128t29 -94.5t50.5 -58.5t76 -20q63 0 100.5 54t37.5 151h243q0 -104 -28.5 -180.5t-79.5 -126.5t-121 -74.5t-152 -24.5q-207 0 -314.5 137t-107.5 427t107 426.5t307 136.5zM477 901q-78 0 -113.5 -64
t-41.5 -182h286q0 118 -31.5 182t-99.5 64zM729 1227h-523v178h523v-178z" />
    <glyph glyph-name="eng" unicode="&#x14b;" horiz-adv-x="1026" 
d="M627 1102q62 0 114.5 -18.5t90.5 -59.5t59.5 -107t21.5 -161v-840q0 -54 -11.5 -105.5t-39.5 -92.5t-76.5 -66t-121.5 -25q-23 0 -48.5 2t-50 6t-46.5 8t-38 9v182h90q48 0 72.5 25t24.5 73v756q0 104 -38 147.5t-104 43.5q-36 0 -67 -16.5t-53.5 -46t-35 -68.5
t-12.5 -84v-664h-245v1077h204l25 -133h12q21 31 48 60t61 50.5t75 34.5t89 13z" />
    <glyph glyph-name="eogonek" unicode="&#x119;" 
d="M664 10q-9 -11 -19.5 -26.5t-20 -34t-15.5 -40t-6 -42.5q0 -20 5 -38.5t15.5 -33t28 -23.5t43.5 -9h45v-113q-35 -14 -68 -21.5t-67 -7.5q-35 0 -71.5 9t-65.5 30.5t-47.5 57t-18.5 88.5q0 37 8 67.5t21 56.5q13 24 30 46q-189 7 -291 136q-107 137 -107 427t107 426.5
t307 136.5q195 0 292 -136.5t97 -426.5v-62h-547q1 -72 10.5 -128t29 -94.5t50.5 -58.5t76 -20q63 0 100.5 54t37.5 151h243q0 -104 -28.5 -180.5t-79.5 -126.5q-41 -40 -94 -64zM477 901q-78 0 -113.5 -64t-41.5 -182h286q0 118 -31.5 182t-99.5 64z" />
    <glyph glyph-name="gbreve" unicode="&#x11f;" horiz-adv-x="1026" 
d="M995 1257q0 -115 -46 -182t-128 -92q42 -46 64 -109t22 -139q0 -83 -26 -150.5t-76 -115.5t-125 -74t-172 -26h-102q-33 0 -53.5 -19t-20.5 -47t17.5 -45.5t45.5 -17.5h373q51 0 95.5 -19.5t78 -56.5t53 -89t19.5 -116q0 -75 -27.5 -136.5t-74.5 -105t-110.5 -67
t-135.5 -23.5h-396q-49 0 -92 18t-75.5 51t-51 78.5t-18.5 100.5q0 80 39 133.5t98 85.5q-40 25 -63 65.5t-23 96.5q0 35 12.5 64.5t34 53.5t50.5 41.5t61 28.5q-65 48 -98 121.5t-33 169.5q0 83 25.5 150.5t76 115.5t124.5 74.5t171 26.5q51 0 96.5 -7.5t83.5 -23.5
q31 22 51 48.5t32 52.5t17 48.5t5 36.5h202zM379 12q-21 0 -38.5 -8t-31 -21.5t-21 -31t-7.5 -37.5q0 -46 28 -73t70 -27h276q47 0 79 27t32 73t-29 72t-71 26h-287zM508 920q-75 0 -113.5 -49t-38.5 -136q0 -86 38.5 -135t113.5 -49q77 0 115.5 49t38.5 135q0 87 -38.5 136
t-115.5 49zM787 1481q0 -39 -19 -78t-54.5 -70.5t-86.5 -51t-115 -19.5q-63 0 -113.5 19.5t-85.5 51t-54 70.5t-19 78h152q2 -11 11.5 -23t25.5 -22t37 -16.5t46 -6.5q26 0 48 6.5t38 16.5t25.5 22t11.5 23h152z" />
    <glyph glyph-name="gcircumflex" unicode="&#x11d;" horiz-adv-x="1026" 
d="M995 1257q0 -115 -46 -182t-128 -92q42 -46 64 -109t22 -139q0 -83 -26 -150.5t-76 -115.5t-125 -74t-172 -26h-102q-33 0 -53.5 -19t-20.5 -47t17.5 -45.5t45.5 -17.5h373q51 0 95.5 -19.5t78 -56.5t53 -89t19.5 -116q0 -75 -27.5 -136.5t-74.5 -105t-110.5 -67
t-135.5 -23.5h-396q-49 0 -92 18t-75.5 51t-51 78.5t-18.5 100.5q0 80 39 133.5t98 85.5q-40 25 -63 65.5t-23 96.5q0 35 12.5 64.5t34 53.5t50.5 41.5t61 28.5q-65 48 -98 121.5t-33 169.5q0 83 25.5 150.5t76 115.5t124.5 74.5t171 26.5q51 0 96.5 -7.5t83.5 -23.5
q57 2 87 26t43.5 55t15.5 61t2 44h159zM379 12q-21 0 -38.5 -8t-31 -21.5t-21 -31t-7.5 -37.5q0 -46 28 -73t70 -27h276q47 0 79 27t32 73t-29 72t-71 26h-287zM508 920q-75 0 -113.5 -49t-38.5 -136q0 -86 38.5 -135t113.5 -49q77 0 115.5 49t38.5 135q0 87 -38.5 136
t-115.5 49zM789 1204h-184l-91 142l-92 -142h-184l176 277h201z" />
    <glyph glyph-name="gcommaaccent" unicode="&#x123;" horiz-adv-x="1026" 
d="M995 1257q0 -115 -46 -182t-128 -92q42 -46 64 -109t22 -139q0 -83 -26 -150.5t-76 -115.5t-125 -74t-172 -26h-102q-33 0 -53.5 -19t-20.5 -47t17.5 -45.5t45.5 -17.5h373q51 0 95.5 -19.5t78 -56.5t53 -89t19.5 -116q0 -75 -27.5 -136.5t-74.5 -105t-110.5 -67
t-135.5 -23.5h-396q-49 0 -92 18t-75.5 51t-51 78.5t-18.5 100.5q0 80 39 133.5t98 85.5q-40 25 -63 65.5t-23 96.5q0 35 12.5 64.5t34 53.5t50.5 41.5t61 28.5q-65 48 -98 121.5t-33 169.5q0 83 25.5 150.5t76 115.5t124.5 74.5t171 26.5q51 0 96.5 -7.5t83.5 -23.5
q31 22 51 48.5t32 52.5t17 48.5t5 36.5h202zM379 12q-21 0 -38.5 -8t-31 -21.5t-21 -31t-7.5 -37.5q0 -46 28 -73t70 -27h276q47 0 79 27t32 73t-29 72t-71 26h-287zM508 920q-75 0 -113.5 -49t-38.5 -136q0 -86 38.5 -135t113.5 -49q77 0 115.5 49t38.5 135q0 87 -38.5 136
t-115.5 49zM516 1461h100v-252h-253v229l93 196h133z" />
    <glyph glyph-name="gdotaccent" unicode="&#x121;" horiz-adv-x="1026" 
d="M995 1257q0 -115 -46 -182t-128 -92q42 -46 64 -109t22 -139q0 -83 -26 -150.5t-76 -115.5t-125 -74t-172 -26h-102q-33 0 -53.5 -19t-20.5 -47t17.5 -45.5t45.5 -17.5h373q51 0 95.5 -19.5t78 -56.5t53 -89t19.5 -116q0 -75 -27.5 -136.5t-74.5 -105t-110.5 -67
t-135.5 -23.5h-396q-49 0 -92 18t-75.5 51t-51 78.5t-18.5 100.5q0 80 39 133.5t98 85.5q-40 25 -63 65.5t-23 96.5q0 35 12.5 64.5t34 53.5t50.5 41.5t61 28.5q-65 48 -98 121.5t-33 169.5q0 83 25.5 150.5t76 115.5t124.5 74.5t171 26.5q51 0 96.5 -7.5t83.5 -23.5
q31 22 51 48.5t32 52.5t17 48.5t5 36.5h202zM379 12q-21 0 -38.5 -8t-31 -21.5t-21 -31t-7.5 -37.5q0 -46 28 -73t70 -27h276q47 0 79 27t32 73t-29 72t-71 26h-287zM508 920q-75 0 -113.5 -49t-38.5 -136q0 -86 38.5 -135t113.5 -49q77 0 115.5 49t38.5 135q0 87 -38.5 136
t-115.5 49zM623 1245h-219v236h219v-236z" />
    <glyph glyph-name="hbar" unicode="&#x127;" horiz-adv-x="1026" 
d="M627 1194h-269v-231h9q18 25 43 50t57 44.5t72 32t88 12.5q62 0 114.5 -18.5t90.5 -59.5t59.5 -107t21.5 -161v-756h-245v688q0 104 -38 147.5t-104 43.5q-36 0 -67 -16.5t-53.5 -46t-35 -68.5t-12.5 -84v-664h-245v1194h-113v178h113v109h245v-109h269v-178z" />
    <glyph glyph-name="hcircumflex" unicode="&#x125;" horiz-adv-x="1026" 
d="M358 963h9q18 25 43 50t57 44.5t72 32t88 12.5q62 0 114.5 -18.5t90.5 -59.5t59.5 -107t21.5 -161v-756h-245v688q0 104 -38 147.5t-104 43.5q-36 0 -67 -16.5t-53.5 -46t-35 -68.5t-12.5 -84v-664h-245v1481h245v-518zM506 1532h-184l-91 142l-92 -142h-185l177 277h201
z" />
    <glyph glyph-name="ibreve" unicode="&#x12d;" horiz-adv-x="467" 
d="M356 0h-245v1077h245v-1077zM508 1481q0 -39 -19 -78t-54.5 -70.5t-86.5 -51t-115 -19.5q-63 0 -113.5 19.5t-86 51t-54.5 70.5t-19 78h153q2 -11 11.5 -23t25.5 -22t37 -16.5t46 -6.5q26 0 48 6.5t38 16.5t25.5 22t11.5 23h152z" />
    <glyph glyph-name="ij" unicode="&#x133;" 
d="M823 -84q0 -54 -11.5 -105.5t-40 -92.5t-76.5 -66t-122 -25q-23 0 -48 2t-49.5 6t-46.5 8t-38 9v182h90q48 0 72.5 25t24.5 73v1145h245v-1161zM356 0h-245v1077h245v-1077zM356 1257h-245v224h245v-224zM823 1257h-245v224h245v-224z" />
    <glyph glyph-name="imacron" unicode="&#x12b;" horiz-adv-x="467" 
d="M356 0h-245v1077h245v-1077zM496 1227h-524v178h524v-178z" />
    <glyph glyph-name="iogonek" unicode="&#x12f;" horiz-adv-x="467" 
d="M356 0q-9 -11 -19.5 -26.5t-20 -34t-15.5 -40t-6 -42.5q0 -20 5 -38.5t15.5 -33t28 -23.5t43.5 -9h45v-113q-35 -14 -68 -21.5t-67 -7.5q-35 0 -71.5 9t-65.5 30.5t-47.5 57t-18.5 88.5q0 37 8 67.5t21.5 56t31.5 47.5q14 17 28 33h-72v1077h245v-1077zM344 1245h-219
v236h219v-236z" />
    <glyph glyph-name="itilde" unicode="&#x129;" horiz-adv-x="467" 
d="M356 0h-245v1077h245v-1077zM579 1481q0 -42 -11.5 -86.5t-36 -81t-63 -59.5t-92.5 -23q-37 0 -70.5 12t-66.5 26t-66 26t-67 12q-33 0 -53.5 -17t-26.5 -59h-137q0 42 11.5 86.5t35.5 80.5t62.5 59.5t92.5 23.5q38 0 72 -12t67 -26t66 -26t68 -12q32 0 52.5 16t26.5 60
h136z" />
    <glyph glyph-name="jcircumflex" unicode="&#x135;" horiz-adv-x="467" 
d="M356 -84q0 -54 -11.5 -105.5t-40 -92.5t-76.5 -66t-122 -25q-23 0 -48 2t-49.5 6t-46.5 8t-38 9v182h90q48 0 72.5 25t24.5 73v1145h245v-1161zM513 1204h-184l-91 142l-92 -142h-184l176 277h201z" />
    <glyph glyph-name="kcommaaccent" unicode="&#x137;" 
d="M356 649l301 428h263l-320 -438l336 -639h-272l-218 446l-90 -110v-336h-245v1481h245v-832zM594 -342l-93 -196h-133l73 173h-100v252h253v-229z" />
    <glyph glyph-name="kgreenlandic" unicode="&#x138;" horiz-adv-x="936" 
d="M600 639l336 -639h-272l-218 446l-90 -110v-336h-245v1077h245v-428l301 428h263z" />
    <glyph glyph-name="lacute" unicode="&#x13a;" horiz-adv-x="467" 
d="M356 0h-245v1481h245v-1481zM517 1803l-221 -265h-203l176 271h246z" />
    <glyph glyph-name="lcaron" unicode="&#x13e;" horiz-adv-x="647" 
d="M356 0h-245v1481h245v-1481zM745 1149l-135 -344h-148l113 319h-113v281h283v-256z" />
    <glyph glyph-name="lcommaaccent" unicode="&#x13c;" horiz-adv-x="467" 
d="M356 0h-245v1481h245v-1481zM361 -342l-93 -196h-133l73 173h-100v252h253v-229z" />
    <glyph glyph-name="ldot" unicode="&#x140;" horiz-adv-x="684" 
d="M356 0h-245v1481h245v-1481zM684 569h-247v269h247v-269z" />
    <glyph glyph-name="longs" unicode="&#x17f;" horiz-adv-x="467" 
d="M381 1497q21 0 46 -2t49 -5.5t46 -8t37 -8.5v-183h-100q-86 0 -86 -88v-1202h-246v870h-109v207h109v131q0 54 12 106t41 92.5t78 65.5t123 25z" />
    <glyph glyph-name="lslash" unicode="&#x142;" horiz-adv-x="467" 
d="M356 0h-245v475l-140 -124v196l140 124v810h245v-592l162 145v-199l-162 -144v-691z" />
    <glyph glyph-name="nacute" unicode="&#x144;" horiz-adv-x="1026" 
d="M627 1102q62 0 114.5 -18.5t90.5 -59.5t59.5 -107t21.5 -161v-756h-245v688q0 104 -38 147.5t-104 43.5q-36 0 -67 -16.5t-53.5 -46t-35 -68.5t-12.5 -84v-664h-245v1077h204l25 -133h12q21 31 48 60t61 50.5t75 34.5t89 13zM796 1475l-221 -265h-203l176 271h246z" />
    <glyph glyph-name="napostrophe" unicode="&#x149;" horiz-adv-x="1384" 
d="M985 1102q62 0 114.5 -18.5t90.5 -59.5t59.5 -107t21.5 -161v-756h-245v688q0 104 -38 147.5t-104 43.5q-36 0 -67 -16.5t-53.5 -46t-35 -68.5t-12.5 -84v-664h-245v1077h204l25 -133h12q21 31 48 60t61 50.5t75 34.5t89 13zM391 1176l-93 -196h-133l73 173h-100v252h253
v-229z" />
    <glyph glyph-name="ncaron" unicode="&#x148;" horiz-adv-x="1026" 
d="M627 1102q62 0 114.5 -18.5t90.5 -59.5t59.5 -107t21.5 -161v-756h-245v688q0 104 -38 147.5t-104 43.5q-36 0 -67 -16.5t-53.5 -46t-35 -68.5t-12.5 -84v-664h-245v1077h204l25 -133h12q21 31 48 60t61 50.5t75 34.5t89 13zM615 1204h-201l-176 277h184l92 -142l91 142
h184z" />
    <glyph glyph-name="ncommaaccent" unicode="&#x146;" horiz-adv-x="1026" 
d="M627 1102q62 0 114.5 -18.5t90.5 -59.5t59.5 -107t21.5 -161v-756h-245v688q0 104 -38 147.5t-104 43.5q-36 0 -67 -16.5t-53.5 -46t-35 -68.5t-12.5 -84v-664h-245v1077h204l25 -133h12q21 31 48 60t61 50.5t75 34.5t89 13zM640 -342l-93 -196h-133l73 173h-100v252h253
v-229z" />
    <glyph glyph-name="obreve" unicode="&#x14f;" horiz-adv-x="1026" 
d="M514 1102q215 0 322.5 -136.5t107.5 -426.5t-107.5 -427t-322.5 -137t-322.5 137t-107.5 427t107.5 426.5t322.5 136.5zM514 895q-95 0 -134.5 -81.5t-39.5 -235.5v-78q0 -155 39.5 -236.5t134.5 -81.5t134.5 81.5t39.5 236.5v78q0 154 -39.5 235.5t-134.5 81.5z
M787 1481q0 -39 -19 -78t-54.5 -70.5t-86.5 -51t-115 -19.5q-63 0 -113.5 19.5t-85.5 51t-54 70.5t-19 78h152q2 -11 11.5 -23t25.5 -22t37 -16.5t46 -6.5q26 0 48 6.5t38 16.5t25.5 22t11.5 23h152z" />
    <glyph glyph-name="ohungarumlaut" unicode="&#x151;" horiz-adv-x="1026" 
d="M514 1102q215 0 322.5 -136.5t107.5 -426.5t-107.5 -427t-322.5 -137t-322.5 137t-107.5 427t107.5 426.5t322.5 136.5zM514 895q-95 0 -134.5 -81.5t-39.5 -235.5v-78q0 -155 39.5 -236.5t134.5 -81.5t134.5 81.5t39.5 236.5v78q0 154 -39.5 235.5t-134.5 81.5z
M616 1475l-172 -265h-162l127 271h205zM903 1475l-172 -265h-162l127 271h205z" />
    <glyph glyph-name="omacron" unicode="&#x14d;" horiz-adv-x="1026" 
d="M514 1102q215 0 322.5 -136.5t107.5 -426.5t-107.5 -427t-322.5 -137t-322.5 137t-107.5 427t107.5 426.5t322.5 136.5zM514 895q-95 0 -134.5 -81.5t-39.5 -235.5v-78q0 -155 39.5 -236.5t134.5 -81.5t134.5 81.5t39.5 236.5v78q0 154 -39.5 235.5t-134.5 81.5z
M775 1227h-523v178h523v-178z" />
    <glyph glyph-name="oslashacute" unicode="&#x1ff;" horiz-adv-x="1026" 
d="M827 977q117 -138 117 -438q0 -290 -107.5 -427t-322.5 -137q-62 0 -113 11t-96 32l-45 -84h-154l93 168q-57 70 -86 177.5t-29 259.5q0 290 107.5 426.5t322.5 136.5q60 0 111 -11t94 -32l45 84h154zM414 217q41 -35 100 -35q95 0 134.5 81.5t39.5 236.5v78
q0 35 -2.5 67.5t-5.5 61.5zM514 895q-95 0 -134.5 -81.5t-39.5 -235.5v-78q0 -70 6 -125l264 487q-38 33 -96 33zM796 1475l-221 -265h-203l176 271h246z" />
    <glyph glyph-name="racute" unicode="&#x155;" horiz-adv-x="653" 
d="M545 1102q23 0 42 -3t33 -6q16 -4 27 -8v-237h-88q-40 0 -76.5 -12t-64 -40.5t-44 -76t-16.5 -119.5v-600h-245v1077h204l29 -157h12q11 34 26 66.5t37.5 58t52.5 41.5t71 16zM511 1475l-221 -265h-203l176 271h246z" />
    <glyph glyph-name="rcaron" unicode="&#x159;" horiz-adv-x="653" 
d="M545 1102q23 0 42 -3t33 -6q16 -4 27 -8v-237h-88q-40 0 -76.5 -12t-64 -40.5t-44 -76t-16.5 -119.5v-600h-245v1077h204l29 -157h12q11 34 26 66.5t37.5 58t52.5 41.5t71 16zM330 1204h-201l-177 277h185l92 -142l91 142h184z" />
    <glyph glyph-name="rcommaaccent" unicode="&#x157;" horiz-adv-x="653" 
d="M545 1102q23 0 42 -3t33 -6q16 -4 27 -8v-237h-88q-40 0 -76.5 -12t-64 -40.5t-44 -76t-16.5 -119.5v-600h-245v1077h204l29 -157h12q11 34 26 66.5t37.5 58t52.5 41.5t71 16zM374 -342l-93 -196h-133l73 173h-100v252h253v-229z" />
    <glyph glyph-name="sacute" unicode="&#x15b;" 
d="M469 1102q77 0 143.5 -20t116 -57.5t77.5 -92t28 -123.5q0 -17 -1.5 -31t-1.5 -16h-249q0 72 -32.5 105.5t-88.5 33.5q-57 0 -92 -28.5t-35 -77.5q0 -39 22.5 -62.5t59.5 -39t84.5 -27t96.5 -26t96.5 -35.5t84.5 -57t59.5 -90t22.5 -134q0 -99 -30.5 -165.5t-84 -107.5
t-127 -58.5t-159.5 -17.5q-93 0 -165.5 24.5t-123 69.5t-76.5 108t-26 140v8q0 5 1 9q0 4 1 8h249v-14q1 -43 14.5 -72t34.5 -47t47 -25.5t52 -7.5q24 0 49.5 6t46.5 19.5t34 36t13 55.5q0 43 -22.5 69t-59.5 43.5t-84.5 30t-96.5 27.5t-96.5 36t-84.5 56t-59.5 88
t-22.5 131q0 82 30 143.5t82 102.5t122 61.5t151 20.5zM750 1475l-221 -265h-203l176 271h246z" />
    <glyph glyph-name="scedilla" unicode="&#x15f;" 
d="M503 -68q33 -2 62.5 -11t51.5 -25.5t35 -42t13 -60.5q0 -51 -22.5 -83.5t-56 -51t-72.5 -25t-72 -6.5q-44 0 -89.5 4.5t-82.5 12.5v100h145q34 0 54 10t20 39q0 25 -15 37t-55 12h-67l17 140q-40 6 -76 18q-72 24 -122.5 69t-76.5 108t-26 140v8q0 5 1 9q0 4 1 8h249v-14
q1 -43 14.5 -72t34.5 -47t47 -25.5t52 -7.5q24 0 49.5 6t46.5 19.5t34 36t13 55.5q0 43 -22.5 69t-59.5 43.5t-84.5 30t-96.5 27.5t-96.5 36t-84.5 56t-59.5 88t-22.5 131q0 82 30 143.5t82 102.5t122 61.5t151 20.5q77 0 143.5 -20t116 -57.5t77.5 -92t28 -123.5
q0 -17 -1.5 -31t-1.5 -16h-249q0 72 -32.5 105.5t-88.5 33.5q-57 0 -92 -28.5t-35 -77.5q0 -39 22.5 -62.5t59.5 -39t84.5 -27t96.5 -26t96.5 -35.5t84.5 -57t59.5 -90t22.5 -134q0 -99 -30.5 -165.5t-84 -107.5t-127.5 -58q-52 -13 -110 -16z" />
    <glyph glyph-name="scircumflex" unicode="&#x15d;" 
d="M469 1102q77 0 143.5 -20t116 -57.5t77.5 -92t28 -123.5q0 -17 -1.5 -31t-1.5 -16h-249q0 72 -32.5 105.5t-88.5 33.5q-57 0 -92 -28.5t-35 -77.5q0 -39 22.5 -62.5t59.5 -39t84.5 -27t96.5 -26t96.5 -35.5t84.5 -57t59.5 -90t22.5 -134q0 -99 -30.5 -165.5t-84 -107.5
t-127 -58.5t-159.5 -17.5q-93 0 -165.5 24.5t-123 69.5t-76.5 108t-26 140v8q0 5 1 9q0 4 1 8h249v-14q1 -43 14.5 -72t34.5 -47t47 -25.5t52 -7.5q24 0 49.5 6t46.5 19.5t34 36t13 55.5q0 43 -22.5 69t-59.5 43.5t-84.5 30t-96.5 27.5t-96.5 36t-84.5 56t-59.5 88
t-22.5 131q0 82 30 143.5t82 102.5t122 61.5t151 20.5zM743 1204h-184l-91 142l-92 -142h-184l176 277h201z" />
    <glyph glyph-name="tbar" unicode="&#x167;" horiz-adv-x="559" 
d="M520 537h-147v-267q0 -88 86 -88h69v-182q-13 -5 -31 -9t-38 -8t-40 -6t-38 -2q-74 0 -123 25t-78 66t-41 92.5t-12 105.5v273h-104v178h104v155h-109v207h109l37 303h209v-303h155v-207h-155v-155h147v-178z" />
    <glyph glyph-name="tcaron" unicode="&#x165;" horiz-adv-x="805" 
d="M373 1077h155v-207h-155v-600q0 -88 86 -88h69v-182q-13 -5 -31 -9t-38 -8t-40 -6t-38 -2q-74 0 -123 25t-78 66t-41 92.5t-12 105.5v606h-109v207h109l37 303h209v-303zM898 1149l-112 -278h-148l90 253h-113v281h283v-256z" />
    <glyph glyph-name="tcommaaccent" unicode="&#x163;" horiz-adv-x="559" 
d="M373 1077h155v-207h-155v-600q0 -88 86 -88h69v-182q-13 -5 -31 -9t-38 -8t-40 -6t-38 -2q-74 0 -123 25t-78 66t-41 92.5t-12 105.5v606h-109v207h109l37 303h209v-303zM407 -342l-93 -196h-133l73 173h-100v252h253v-229z" />
    <glyph glyph-name="ubreve" unicode="&#x16d;" horiz-adv-x="1026" 
d="M913 0h-204l-25 133h-12q-21 -32 -48 -60.5t-61 -50t-75 -34.5t-89 -13q-62 0 -114.5 18.5t-90.5 59.5t-59.5 107.5t-21.5 161.5v755h245v-688q0 -104 36.5 -147t105.5 -43q36 0 66.5 16t53 44t35.5 67t13 84v667h245v-1077zM787 1481q0 -39 -19 -78t-54.5 -70.5
t-86.5 -51t-115 -19.5q-63 0 -113.5 19.5t-85.5 51t-54 70.5t-19 78h152q2 -11 11.5 -23t25.5 -22t37 -16.5t46 -6.5q26 0 48 6.5t38 16.5t25.5 22t11.5 23h152z" />
    <glyph glyph-name="uhungarumlaut" unicode="&#x171;" horiz-adv-x="1026" 
d="M913 0h-204l-25 133h-12q-21 -32 -48 -60.5t-61 -50t-75 -34.5t-89 -13q-62 0 -114.5 18.5t-90.5 59.5t-59.5 107.5t-21.5 161.5v755h245v-688q0 -104 36.5 -147t105.5 -43q36 0 66.5 16t53 44t35.5 67t13 84v667h245v-1077zM616 1475l-172 -265h-162l127 271h205z
M903 1475l-172 -265h-162l127 271h205z" />
    <glyph glyph-name="umacron" unicode="&#x16b;" horiz-adv-x="1026" 
d="M913 0h-204l-25 133h-12q-21 -32 -48 -60.5t-61 -50t-75 -34.5t-89 -13q-62 0 -114.5 18.5t-90.5 59.5t-59.5 107.5t-21.5 161.5v755h245v-688q0 -104 36.5 -147t105.5 -43q36 0 66.5 16t53 44t35.5 67t13 84v667h245v-1077zM775 1227h-523v178h523v-178z" />
    <glyph glyph-name="uni207F" unicode="&#x207f;" horiz-adv-x="666" 
d="M410 1503q42 0 77 -12t60.5 -40t40 -72.5t14.5 -108.5v-508h-176v463q0 66 -22 93.5t-62 27.5q-22 0 -41 -10.5t-32.5 -29t-21 -44t-7.5 -54.5v-446h-177v725h148l16 -88h9q13 21 30 39.5t38.5 33t47.5 23t58 8.5z" />
    <glyph glyph-name="uogonek" unicode="&#x173;" horiz-adv-x="1026" 
d="M913 0q-9 -11 -19.5 -26.5t-20 -34t-15.5 -40t-6 -42.5q0 -20 5 -38.5t15.5 -33t28 -23.5t43.5 -9h45v-113q-35 -14 -68 -21.5t-67 -7.5q-35 0 -71.5 9t-65.5 30.5t-47.5 57t-18.5 88.5q0 37 8 67.5t21.5 56t31.5 47.5q14 17 28 33h-31l-25 133h-12q-21 -32 -48 -60.5
t-61 -50t-75 -34.5t-89 -13q-62 0 -114.5 18.5t-90.5 59.5t-59.5 107.5t-21.5 161.5v755h245v-688q0 -104 36.5 -147t105.5 -43q36 0 66.5 16t53 44t35.5 67t13 84v667h245v-1077z" />
    <glyph glyph-name="uring" unicode="&#x16f;" horiz-adv-x="1026" 
d="M913 0h-204l-25 133h-12q-21 -32 -48 -60.5t-61 -50t-75 -34.5t-89 -13q-62 0 -114.5 18.5t-90.5 59.5t-59.5 107.5t-21.5 161.5v755h245v-688q0 -104 36.5 -147t105.5 -43q36 0 66.5 16t53 44t35.5 67t13 84v667h245v-1077zM514 1542q41 0 77 -15.5t62.5 -42.5
t41.5 -62.5t15 -75.5q0 -41 -15.5 -77t-42 -62.5t-62.5 -42t-76 -15.5t-76 15t-63 41.5t-42.5 62.5t-15.5 78q0 40 15.5 76t42 62.5t62.5 42t77 15.5zM514 1440q-41 0 -68 -27t-27 -67q0 -41 27 -68t68 -27q19 0 36 7t30 20t20.5 30.5t7.5 37.5t-7.5 37t-20.5 30t-30 20
t-36 7z" />
    <glyph glyph-name="utilde" unicode="&#x169;" horiz-adv-x="1026" 
d="M913 0h-204l-25 133h-12q-21 -32 -48 -60.5t-61 -50t-75 -34.5t-89 -13q-62 0 -114.5 18.5t-90.5 59.5t-59.5 107.5t-21.5 161.5v755h245v-688q0 -104 36.5 -147t105.5 -43q36 0 66.5 16t53 44t35.5 67t13 84v667h245v-1077zM858 1481q0 -42 -11.5 -86.5t-36 -81
t-63 -59.5t-92.5 -23q-37 0 -70.5 12t-66.5 26t-66 26t-67 12q-33 0 -53.5 -17t-26.5 -59h-136q0 42 11.5 86.5t35.5 80.5t62 59.5t92 23.5q38 0 72 -12t67 -26t66 -26t68 -12q32 0 52.5 16t26.5 60h136z" />
    <glyph glyph-name="wacute" unicode="&#x1e83;" horiz-adv-x="1307" 
d="M1044 0h-247l-107 514q-8 41 -14 87.5t-10 86.5q-4 47 -7 92h-12q-3 -44 -7 -90q-4 -39 -10 -85.5t-14 -88.5l-104 -516h-248l-262 1077h246l102 -442q12 -55 20.5 -114.5t13.5 -109.5q6 -58 9 -114h8q4 53 11 110q5 49 14 108.5t20 117.5l93 444h245l93 -446
q8 -40 16 -96.5t15 -109.5q7 -62 14 -128h8q8 62 17 122q8 51 17 108.5t19 103.5l94 446h228zM937 1475l-221 -265h-203l176 271h246z" />
    <glyph glyph-name="wcircumflex" unicode="&#x175;" horiz-adv-x="1307" 
d="M1044 0h-247l-107 514q-8 41 -14 87.5t-10 86.5q-4 47 -7 92h-12q-3 -44 -7 -90q-4 -39 -10 -85.5t-14 -88.5l-104 -516h-248l-262 1077h246l102 -442q12 -55 20.5 -114.5t13.5 -109.5q6 -58 9 -114h8q4 53 11 110q5 49 14 108.5t20 117.5l93 444h245l93 -446
q8 -40 16 -96.5t15 -109.5q7 -62 14 -128h8q8 62 17 122q8 51 17 108.5t19 103.5l94 446h228zM930 1204h-184l-91 142l-92 -142h-184l176 277h201z" />
    <glyph glyph-name="wdieresis" unicode="&#x1e85;" horiz-adv-x="1307" 
d="M1044 0h-247l-107 514q-8 41 -14 87.5t-10 86.5q-4 47 -7 92h-12q-3 -44 -7 -90q-4 -39 -10 -85.5t-14 -88.5l-104 -516h-248l-262 1077h246l102 -442q12 -55 20.5 -114.5t13.5 -109.5q6 -58 9 -114h8q4 53 11 110q5 49 14 108.5t20 117.5l93 444h245l93 -446
q8 -40 16 -96.5t15 -109.5q7 -62 14 -128h8q8 62 17 122q8 51 17 108.5t19 103.5l94 446h228zM578 1257h-205v224h205v-224zM936 1257h-205v224h205v-224z" />
    <glyph glyph-name="wgrave" unicode="&#x1e81;" horiz-adv-x="1307" 
d="M1044 0h-247l-107 514q-8 41 -14 87.5t-10 86.5q-4 47 -7 92h-12q-3 -44 -7 -90q-4 -39 -10 -85.5t-14 -88.5l-104 -516h-248l-262 1077h246l102 -442q12 -55 20.5 -114.5t13.5 -109.5q6 -58 9 -114h8q4 53 11 110q5 49 14 108.5t20 117.5l93 444h245l93 -446
q8 -40 16 -96.5t15 -109.5q7 -62 14 -128h8q8 62 17 122q8 51 17 108.5t19 103.5l94 446h228zM795 1210h-203l-221 265l2 6h246z" />
    <glyph glyph-name="ycircumflex" unicode="&#x177;" 
d="M631 55q-26 -87 -59.5 -165t-79 -136.5t-105 -92.5t-137.5 -34q-74 0 -117 8.5t-43 10.5v188h111q52 0 98 38.5t68 127.5l-359 1077h260l162 -506q10 -31 20.5 -78.5t18.5 -92.5q10 -53 18 -109h9q7 53 16 104q8 44 16.5 91.5t18.5 82.5l133 508h246zM743 1204h-184
l-91 142l-92 -142h-184l176 277h201z" />
    <glyph glyph-name="ygrave" unicode="&#x1ef3;" 
d="M631 55q-26 -87 -59.5 -165t-79 -136.5t-105 -92.5t-137.5 -34q-74 0 -117 8.5t-43 10.5v188h111q52 0 98 38.5t68 127.5l-359 1077h260l162 -506q10 -31 20.5 -78.5t18.5 -92.5q10 -53 18 -109h9q7 53 16 104q8 44 16.5 91.5t18.5 82.5l133 508h246zM608 1210h-203
l-221 265l2 6h246z" />
    <glyph glyph-name="zacute" unicode="&#x17a;" horiz-adv-x="840" 
d="M788 975l-419 -768h434v-207h-766v104l418 766h-394v207h727v-102zM703 1475l-221 -265h-203l176 271h246z" />
    <glyph glyph-name="zdotaccent" unicode="&#x17c;" horiz-adv-x="840" 
d="M788 975l-419 -768h434v-207h-766v104l418 766h-394v207h727v-102zM530 1245h-219v236h219v-236z" />
    <glyph glyph-name="uniFB01" unicode="&#xfb01;" horiz-adv-x="1026" 
d="M381 1497q21 0 46 -2t49 -5.5t46 -8t37 -8.5v-183h-100q-86 0 -86 -88v-125h186v-207h-186v-870h-246v870h-109v207h109v131q0 54 12 106t41 92.5t78 65.5t123 25zM915 0h-245v1077h245v-1077zM915 1257h-245v224h245v-224z" />
    <glyph glyph-name="uniFB02" unicode="&#xfb02;" horiz-adv-x="1026" 
d="M381 1497q21 0 46 -2t49 -5.5t46 -8t37 -8.5v-183h-100q-86 0 -86 -88v-125h186v-207h-186v-870h-246v870h-109v207h109v131q0 54 12 106t41 92.5t78 65.5t123 25zM915 0h-245v1481h245v-1481z" />
    <glyph glyph-name="Delta" unicode="&#x2206;" horiz-adv-x="1206" 
d="M1164 113v-113h-1137v113l416 1292h305zM584 1108l-268 -875h544l-268 875h-8z" />
    <glyph glyph-name="Omega" unicode="&#x2126;" horiz-adv-x="1573" 
d="M784 1430q136 0 244 -44t183.5 -134t115.5 -227t40 -323q0 -172 -56 -295.5t-148 -201.5q22 3 44 7.5t42.5 9t37.5 8t29 3.5h51v-233h-505v166q118 31 176.5 145.5t58.5 294.5v148q0 105 -19.5 188.5t-58.5 141.5t-98 89t-137 31t-137 -31t-98.5 -89t-59 -141.5
t-19.5 -188.5v-148q0 -178 59.5 -292t176.5 -146v-168h-506v233h51q12 0 28.5 -3.5t36.5 -8t42 -9t45 -7.5q-92 78 -147.5 201.5t-55.5 295.5q0 186 40 323t115.5 227t184 134t244.5 44z" />
    <glyph glyph-name="pi" unicode="&#x3c0;" horiz-adv-x="1286" 
d="M1173 870h-170v-551q0 -63 2 -112t5.5 -87.5t8.5 -67.5t11 -52h-242q-14 25 -22.5 101t-8.5 200v569h-225q-4 -61 -10.5 -137.5t-15.5 -159t-21 -166.5t-25.5 -160.5t-29 -140.5t-31.5 -106h-244q17 51 33 118.5t30 143.5t26 158t20.5 161.5t14.5 153.5t7 135
q-48 0 -81.5 -1.5t-59 -4.5t-44 -8t-36.5 -12l-24 172q40 29 117.5 45t209.5 16h822z" />
    <glyph glyph-name="fraction" unicode="&#x2044;" horiz-adv-x="281" 
d="M-203 -25h-137l811 1455h135z" />
    <glyph glyph-name="oneeighth" unicode="&#x215b;" horiz-adv-x="1401" 
d="M387 -25h-137l811 1455h135zM383 721h135v-141h-450v141h151v477h-153v115q23 3 53 11.5t62 20.5t63 27.5t57 32.5h82v-684zM1100 346q-37 0 -57.5 -30t-20.5 -87q0 -58 20.5 -87t57.5 -29q78 0 78 116q0 57 -20 87t-58 30zM1100 838q57 0 99.5 -19t71.5 -51t43.5 -75.5
t14.5 -92.5q0 -56 -21 -103.5t-59 -78.5q50 -31 73.5 -82.5t23.5 -114.5q0 -51 -14 -96.5t-44 -79t-76.5 -53t-111.5 -19.5t-111.5 19.5t-76.5 53t-44 79t-14 96.5q0 63 23.5 113.5t72.5 81.5q-37 32 -58.5 81.5t-21.5 102.5q0 49 14.5 92.5t43.5 75.5t72 51t100 19z
M1100 698q-32 0 -48 -26t-16 -82q0 -107 64 -107q63 0 63 107q0 56 -15.5 82t-47.5 26z" />
    <glyph glyph-name="threeeighths" unicode="&#x215c;" horiz-adv-x="1401" 
d="M379 -25h-137l811 1455h135zM295 1405q52 0 95.5 -15t74.5 -45t48 -73.5t17 -100.5q0 -69 -29 -111t-75 -73q50 -25 83.5 -75t33.5 -128q0 -57 -18 -102t-50.5 -76.5t-77 -48t-98.5 -16.5q-61 0 -108 18t-79 51.5t-48.5 80.5t-16.5 106v30h168v-34q0 -54 20 -82.5
t62 -28.5q34 0 56 26t22 85q0 35 -7.5 58t-19.5 36.5t-27.5 18.5t-31.5 5h-51v138h53q28 0 48.5 28.5t20.5 87.5q0 53 -17 76t-46 23q-32 0 -50 -25t-18 -78v-33h-168v43q0 53 17.5 96.5t48.5 74t74 47t94 16.5zM1100 348q-37 0 -57.5 -30t-20.5 -87q0 -58 20.5 -87
t57.5 -29q78 0 78 116q0 57 -20 87t-58 30zM1100 840q57 0 99.5 -19t71.5 -51t43.5 -75.5t14.5 -92.5q0 -56 -21 -103.5t-59 -78.5q50 -31 73.5 -82.5t23.5 -114.5q0 -51 -14 -96.5t-44 -79t-76.5 -53t-111.5 -19.5t-111.5 19.5t-76.5 53t-44 79t-14 96.5q0 63 23.5 113.5
t72.5 81.5q-37 32 -58.5 81.5t-21.5 102.5q0 49 14.5 92.5t43.5 75.5t72 51t100 19zM1100 700q-32 0 -48 -26t-16 -82q0 -107 64 -107q63 0 63 107q0 56 -15.5 82t-47.5 26z" />
    <glyph glyph-name="fiveeighths" unicode="&#x215d;" horiz-adv-x="1401" 
d="M375 -25h-137l811 1455h135zM516 1251h-270l-8 -168q15 11 43.5 23t60.5 12q44 0 82.5 -16.5t67 -50.5t45 -85t16.5 -120t-17.5 -123t-50.5 -90.5t-79 -56t-103 -19.5t-103.5 18t-79.5 52.5t-51 84t-18 111.5h170q0 -59 21 -94t61 -35q35 0 57.5 38t22.5 114
q0 66 -20.5 102.5t-51.5 36.5t-50 -21t-32 -53l-153 25l26 469h414v-154zM1100 346q-37 0 -57.5 -30t-20.5 -87q0 -58 20.5 -87t57.5 -29q78 0 78 116q0 57 -20 87t-58 30zM1100 838q57 0 99.5 -19t71.5 -51t43.5 -75.5t14.5 -92.5q0 -56 -21 -103.5t-59 -78.5
q50 -31 73.5 -82.5t23.5 -114.5q0 -51 -14 -96.5t-44 -79t-76.5 -53t-111.5 -19.5t-111.5 19.5t-76.5 53t-44 79t-14 96.5q0 63 23.5 113.5t72.5 81.5q-37 32 -58.5 81.5t-21.5 102.5q0 49 14.5 92.5t43.5 75.5t72 51t100 19zM1100 698q-32 0 -48 -26t-16 -82
q0 -107 64 -107q63 0 63 107q0 56 -15.5 82t-47.5 26z" />
    <glyph glyph-name="seveneighths" unicode="&#x215e;" horiz-adv-x="1401" 
d="M324 -25h-138l811 1455h136zM1100 346q-37 0 -57.5 -30t-20.5 -87q0 -58 20.5 -87t57.5 -29q78 0 78 116q0 57 -20 87t-58 30zM594 1296q-40 -61 -82.5 -134.5t-77.5 -156t-57.5 -172.5t-22.5 -184v-69h-176v10q0 94 19 185.5t51.5 176.5t74.5 160.5t87 138.5h-322v154
h506v-109zM1100 838q57 0 99.5 -19t71.5 -51t43.5 -75.5t14.5 -92.5q0 -56 -21 -103.5t-59 -78.5q50 -31 73.5 -82.5t23.5 -114.5q0 -51 -14 -96.5t-44 -79t-76.5 -53t-111.5 -19.5t-111.5 19.5t-76.5 53t-44 79t-14 96.5q0 63 23.5 113.5t72.5 81.5q-37 32 -58.5 81.5
t-21.5 102.5q0 49 14.5 92.5t43.5 75.5t72 51t100 19zM1100 698q-32 0 -48 -26t-16 -82q0 -107 64 -107q63 0 63 107q0 56 -15.5 82t-47.5 26z" />
    <glyph glyph-name="exclamdbl" unicode="&#x203c;" horiz-adv-x="1118" 
d="M922 403h-168l-72 1002h313zM422 0h-283v281h283v-281zM981 0h-283v281h283v-281zM362 403h-167l-72 1002h313z" />
    <glyph glyph-name="minute" unicode="&#x2032;" horiz-adv-x="399" 
d="M326 1399l-97 -363h-182l51 369h226z" />
    <glyph glyph-name="second" unicode="&#x2033;" horiz-adv-x="797" 
d="M635 1399l-96 -363h-183l52 369h225zM326 1399l-97 -363h-182l51 369h226z" />
    <glyph glyph-name="underscoredbl" unicode="&#x2017;" horiz-adv-x="1024" 
d="M1024 -285h-1024v105h1024v-105zM1024 -463h-1024v105h1024v-105z" />
    <glyph glyph-name="uni203E" unicode="&#x203e;" horiz-adv-x="1024" 
d="M1024 1620h-1024v141h1024v-141z" />
    <glyph glyph-name="quotereversed" unicode="&#x201b;" horiz-adv-x="467" 
d="M375 1124h-113l113 -319h-148l-135 344v256h283v-281z" />
    <glyph glyph-name="franc" unicode="&#x20a3;" horiz-adv-x="1032" 
d="M1022 748h-27q-40 0 -76 -12t-63.5 -40.5t-44 -76.5t-16.5 -119v-500h-246v584h-205v-584h-262v1405h723v-234h-461v-354h205v160h205l28 -158h13q9 34 22.5 66.5t33 58t47 41.5t63.5 16q14 0 25.5 -2.5t19.5 -5.5q9 -4 16 -8v-237z" />
    <glyph glyph-name="lira" unicode="&#x20a4;" 
d="M516 1430q84 0 152.5 -25t117 -75t75 -124.5t26.5 -173.5v-10h-244v37q0 81 -34 122.5t-93 41.5q-57 0 -90 -36.5t-33 -111.5v-186h234v-174h-234v-84h234v-174h-236l-22 -236h503v-221h-831v221h104v236h-127v174h127v84h-127v174h127v133q0 102 25.5 178.5t73.5 127.5
t116.5 76.5t155.5 25.5z" />
    <glyph glyph-name="peseta" unicode="&#x20a7;" horiz-adv-x="1967" 
d="M422 1405q94 0 168.5 -24t128.5 -67.5t88 -104t47 -132.5h39l59 303h178v-303h295q31 11 67.5 18t78.5 7q81 0 140.5 -26t98.5 -67t58.5 -90.5t19.5 -97.5q0 -7 -0.5 -17t-0.5 -19q-1 -11 -1 -23h-237v26q-2 51 -23 82t-63 31q-26 0 -43.5 -8.5t-28.5 -21.5t-16 -29
t-5 -31q0 -40 19 -67t50 -48t70.5 -38t81 -36t81 -43.5t70.5 -59.5t50 -83.5t19 -116.5q0 -171 -87.5 -257.5t-248.5 -86.5q-194 0 -289 113v-88q-25 -9 -65 -17t-74 -8q-74 0 -123 25t-78 66t-41 92.5t-12 105.5v606h-43q-16 -75 -53.5 -135t-93 -102.5t-126.5 -65
t-155 -22.5h-57v-545h-263v1405h320zM365 1171v-395h30q96 0 146.5 55t50.5 152q0 87 -51.5 137.5t-145.5 50.5h-30zM1130 870v-600q0 -43 22.5 -65.5t64.5 -22.5h16q-8 26 -12 55.5t-4 61.5q0 9 0.5 17t1.5 13q1 6 2 11h237v-33q0 -57 28 -94t81 -37q46 0 74 27t28 73
q0 43 -19 71.5t-49.5 49.5t-70 38t-80.5 36t-80.5 43.5t-70 60.5t-49.5 88t-19 125q0 20 2.5 41t7.5 41h-111z" />
    <glyph glyph-name="approxequal" unicode="&#x2248;" horiz-adv-x="1124" 
d="M1065 635q-30 -42 -73 -75q-37 -29 -92 -52t-128 -23q-57 0 -108 19.5t-102 43t-103.5 43t-110.5 19.5q-65 0 -118.5 -23.5t-92.5 -51.5q-46 -33 -82 -74v246q31 41 74 74q37 28 91.5 51.5t127.5 23.5q57 0 108.5 -19.5t102 -43t102.5 -43t111 -19.5q65 0 118.5 23
t92.5 52q46 33 82 75v-246zM1065 203q-30 -42 -73 -75q-37 -29 -92 -52t-128 -23q-57 0 -108 19.5t-102 43t-103.5 43t-110.5 19.5q-65 0 -118.5 -23.5t-92.5 -51.5q-46 -33 -82 -74v245q31 42 74 75q37 28 91.5 51.5t127.5 23.5q57 0 108.5 -19.5t102 -43t102.5 -43
t111 -19.5q65 0 118.5 23t92.5 52q46 33 82 75v-246z" />
    <glyph glyph-name="equivalence" unicode="&#x2261;" horiz-adv-x="979" 
d="M911 905h-843v213h843v-213zM911 35h-843v211h843v-211zM911 469h-843v213h843v-213z" />
    <glyph glyph-name="greaterequal" unicode="&#x2265;" horiz-adv-x="1124" 
d="M985 977v-260l-844 -422v242l637 311l-637 311v242zM985 0h-844v211h844v-211z" />
    <glyph glyph-name="infinity" unicode="&#x221e;" horiz-adv-x="1460" 
d="M1049 936q63 0 119.5 -21.5t99 -62.5t67.5 -100t25 -134q0 -80 -26 -142t-69.5 -105t-99.5 -65.5t-116 -22.5q-32 0 -69.5 6t-79.5 26t-86 58t-89 102q-35 -43 -70 -78.5t-74 -60.5t-83.5 -39t-96.5 -14q-60 0 -115 22.5t-97 64.5t-67.5 102t-25.5 134t24.5 134.5t68 104
t102.5 67.5t127 24q103 0 180 -46.5t143 -137.5q23 24 51.5 56t65.5 60.5t84 48t107 19.5zM422 768q-27 0 -51 -10t-42.5 -30.5t-29 -50.5t-10.5 -69q0 -32 10.5 -60t29 -49t44 -33.5t55.5 -12.5q32 0 61.5 13t55 33.5t48 47t40.5 53.5l-6 10q-23 34 -44.5 63t-44.5 50
t-51 33t-65 12zM1030 768q-31 0 -57 -12.5t-50 -33.5t-46.5 -48t-45.5 -56l-6 -8q36 -50 65 -80.5t54 -47.5t48 -23t48 -6q31 0 54.5 15t39.5 37.5t24.5 49.5t8.5 51q0 34 -9.5 64t-27.5 51.5t-43.5 34t-56.5 12.5z" />
    <glyph glyph-name="integral" unicode="&#x222b;" horiz-adv-x="561" 
d="M530 1618q-33 0 -61.5 -6t-50 -19.5t-33.5 -36t-12 -55.5q16 -356 28 -666q5 -132 10.5 -267t9.5 -255t6.5 -217.5t2.5 -154.5q0 -73 -30.5 -118t-83 -70t-122 -33.5t-147.5 -8.5v144q33 0 61 6t49 19.5t32.5 36t11.5 56.5q-16 354 -28 663q-4 88 -7 177.5t-6.5 176
t-6 167.5t-4.5 151t-3 126.5t-1 95.5q0 72 31 117t84 69.5t123 33.5t147 9v-141z" />
    <glyph glyph-name="intersection" unicode="&#x2229;" horiz-adv-x="1479" 
d="M735 1404q120 0 224 -42.5t181.5 -118t122 -179t45.5 -224.5l4 -840h-244v840q0 77 -26 140.5t-71 109.5t-105.5 71t-128.5 25t-128 -25t-105 -71t-71 -109.5t-26 -140.5v-840h-245v840q0 121 45 224.5t122.5 179t182 118t223.5 42.5z" />
    <glyph glyph-name="lessequal" unicode="&#x2264;" horiz-adv-x="1124" 
d="M985 1159l-637 -311l637 -311v-242l-844 422v260l844 424v-242zM985 0h-844v211h844v-211z" />
    <glyph glyph-name="minus" unicode="&#x2212;" horiz-adv-x="981" 
d="M911 416h-843v213h843v-213z" />
    <glyph glyph-name="notequal" unicode="&#x2260;" horiz-adv-x="1124" 
d="M815 844h176v-213h-282l-115 -223h397v-211h-504l-73 -146h-166l74 146h-175v211h281l115 223h-396v213h502l76 147h166z" />
    <glyph glyph-name="orthogonal" unicode="&#x221f;" horiz-adv-x="2005" 
d="M564 225h1078v-225h-1320v1280h242v-1055z" />
    <glyph glyph-name="partialdiff" unicode="&#x2202;" horiz-adv-x="1012" 
d="M455 1505q90 0 176.5 -40.5t153.5 -128t108 -224t41 -328.5q0 -189 -32.5 -339.5t-95 -254.5t-153.5 -159.5t-209 -55.5q-92 0 -161 35.5t-115.5 96.5t-70 141.5t-23.5 169.5q0 117 32 210t86 158t124 99.5t145 34.5q45 0 81 -14t63.5 -34.5t46.5 -43.5t28 -42h8
q1 5 1.5 14t0.5 19v37q0 94 -21 175.5t-58 142t-87.5 95t-109.5 34.5q-75 0 -129 -21t-92 -49v213q48 25 111.5 42t150.5 17zM508 721q-38 0 -70.5 -24.5t-56.5 -67t-37.5 -98.5t-13.5 -119q0 -51 8.5 -93t25 -72t40.5 -46.5t55 -16.5q45 0 82.5 32.5t65 86.5t44.5 124
t23 144q-7 25 -21 52t-35 48.5t-48.5 35.5t-61.5 14z" />
    <glyph glyph-name="product" unicode="&#x220f;" horiz-adv-x="1686" 
d="M1489 1272h-170v-1534h-248v1534h-459v-1534h-247v1534h-168v209h1292v-209z" />
    <glyph glyph-name="radical" unicode="&#x221a;" horiz-adv-x="1124" 
d="M811 -303h-225q-88 227 -174 451.5t-172 451.5l-158 -61l-41 123l352 139q63 -180 129 -355.5t131 -355.5q16 -43 25 -81l18 -70l281 1816h166z" />
    <glyph glyph-name="summation" unicode="&#x2211;" horiz-adv-x="1460" 
d="M1341 1280h-796v-8l495 -627l-518 -657v-8h854v-242h-1218v129l594 745l-576 731v138h1165v-201z" />
    <glyph glyph-name="uni2219" unicode="&#x2219;" horiz-adv-x="559" 
d="M406 565h-256v277h256v-277z" />
    <glyph glyph-name="arrowboth" unicode="&#x2194;" horiz-adv-x="2048" 
d="M1966 539v-43l-403 -355h-107l109 265h-1077l108 -265h-107l-403 355v43l403 354h107l-108 -265h1077l-109 265h107z" />
    <glyph glyph-name="arrowdown" unicode="&#x2193;" horiz-adv-x="1024" 
d="M627 -22l265 108v-107l-355 -403h-43l-354 403v107l265 -108v1478h222v-1478z" />
    <glyph glyph-name="arrowleft" unicode="&#x2190;" horiz-adv-x="2048" 
d="M488 627h1478v-222h-1478l108 -265h-107l-403 355v43l403 354h107z" />
    <glyph glyph-name="arrowright" unicode="&#x2192;" horiz-adv-x="2048" 
d="M1966 537v-43l-403 -354h-107l108 265h-1478v222h1478l-108 265h107z" />
    <glyph glyph-name="arrowup" unicode="&#x2191;" horiz-adv-x="1024" 
d="M891 1053v-107l-265 108v-1478h-222v1478l-265 -108v107l355 403h43z" />
    <glyph glyph-name="arrowupdn" unicode="&#x2195;" horiz-adv-x="1024" 
d="M886 1053v-107l-265 108v-1077l265 109v-107l-354 -403h-43l-355 403v107l265 -109v1077l-265 -108v107l355 403h43z" />
    <glyph glyph-name="estimated" unicode="&#x212e;" horiz-adv-x="1229" 
d="M618 1102q122 0 219.5 -43.5t166 -121.5t105 -185t36.5 -234v-10h-832v-338q57 -53 133.5 -81t171.5 -28q137 0 237 60t153 164l69 -43q-32 -62 -78 -111t-104 -84t-127.5 -53.5t-149.5 -18.5q-123 0 -220.5 42.5t-165.5 117.5t-104 178.5t-36 225.5t36 225t104 178
t165.5 117.5t220.5 42.5zM618 1016q-95 0 -171.5 -29t-133.5 -82v-311h611v309q-59 54 -135.5 83.5t-170.5 29.5z" />
    <glyph glyph-name="commaaccent" unicode="&#xf6c3;" horiz-adv-x="559" 
d="M403 -342l-93 -196h-133l73 173h-100v252h253v-229z" />
    <glyph glyph-name="uni02C9" unicode="&#x2c9;" horiz-adv-x="1024" 
d="M1024 1620h-1024v141h1024v-141z" />
    <glyph glyph-name="breve" unicode="&#x2d8;" horiz-adv-x="559" 
d="M549 1481q0 -39 -19 -78t-54.5 -70.5t-86.5 -51t-115 -19.5q-63 0 -113.5 19.5t-85.5 51t-54 70.5t-19 78h152q2 -11 11.5 -23t25.5 -22t37 -16.5t46 -6.5q26 0 48 6.5t38 16.5t25.5 22t11.5 23h152z" />
    <glyph glyph-name="caron" unicode="&#x2c7;" horiz-adv-x="559" 
d="M377 1204h-201l-176 277h184l92 -142l91 142h184z" />
    <glyph glyph-name="dotaccent" unicode="&#x2d9;" horiz-adv-x="559" 
d="M389 1245h-219v236h219v-236z" />
    <glyph glyph-name="hungarumlaut" unicode="&#x2dd;" horiz-adv-x="559" 
d="M629 1475l-172 -265h-162l127 271h205zM342 1475l-172 -265h-162l127 271h205z" />
    <glyph glyph-name="ogonek" unicode="&#x2db;" horiz-adv-x="559" 
d="M389 16q-9 -11 -19.5 -26.5t-20 -34t-15.5 -40t-6 -42.5q0 -20 5 -38.5t15.5 -33t28 -23.5t43.5 -9h45v-113q-35 -14 -68 -21.5t-67 -7.5q-35 0 -71.5 9t-65.5 30.5t-47.5 57t-18.5 88.5q0 37 8 67.5t21.5 56t31.5 47.5t37 42h161z" />
    <glyph glyph-name="ring" unicode="&#x2da;" horiz-adv-x="559" 
d="M285 1542q41 0 77 -15.5t62.5 -42.5t41.5 -62.5t15 -75.5q0 -41 -15.5 -77t-42 -62.5t-62.5 -42t-76 -15.5t-76 15t-63 41.5t-42.5 62.5t-15.5 78q0 40 15.5 76t42 62.5t62.5 42t77 15.5zM285 1440q-41 0 -68 -27t-27 -67q0 -41 27 -68t68 -27q19 0 36 7t30 20t20.5 30.5
t7.5 37.5t-7.5 37t-20.5 30t-30 20t-36 7z" />
    <glyph glyph-name="AEacute" unicode="&#x1fc;" horiz-adv-x="1679" 
d="M1122 1802l-221 -264h-203l176 270h246zM915 0l-67 276h-518l-103 -276h-243l538 1405h1057v-234h-682l82 -335h510v-234h-453l90 -369h465v-233h-676zM416 510h377l-144 608h-8z" />
    <glyph glyph-name="afii00208" unicode="&#x2015;" horiz-adv-x="1679" 
d="M1464 457h-1255v194h1255v-194z" />
    <glyph glyph-name="afii61248" unicode="&#x2105;" horiz-adv-x="1617" 
d="M416 -25h-158l852 1455h156zM362 1430q61 0 110 -17.5t83.5 -54.5t53 -94.5t18.5 -137.5h-176q0 158 -89 158q-55 0 -78.5 -57t-23.5 -168v-53q0 -112 24 -169t83 -57q48 0 68 40t20 118h172q0 -80 -18.5 -137.5t-52 -94t-81.5 -54t-108 -17.5q-148 0 -217.5 96.5
t-69.5 300.5q0 205 70.5 301.5t211.5 96.5zM1180 768q151 0 227 -96.5t76 -300.5q0 -205 -76 -301.5t-227 -96.5q-152 0 -227.5 96.5t-75.5 301.5q0 204 75.5 300.5t227.5 96.5zM1180 623q-68 0 -95.5 -57t-27.5 -169v-53q0 -111 27.5 -168t95.5 -57t95.5 57t27.5 168v53
q0 112 -27.5 169t-95.5 57z" />
    <glyph glyph-name="afii61289" unicode="&#x2113;" horiz-adv-x="1004" 
d="M563 1505q139 0 217 -79.5t78 -233.5q0 -70 -29.5 -148t-82 -159.5t-124 -164.5t-155.5 -163v-151q0 -62 12.5 -105.5t34 -70.5t50.5 -39.5t61 -12.5q60 0 109.5 17t92.5 45v-211q-52 -26 -106.5 -40t-122.5 -14q-101 0 -172 29t-117 79.5t-67 118.5t-21 146
q-28 -20 -54 -39.5t-54 -38.5v183q24 18 51.5 39.5t56.5 46.5v501q0 132 28.5 221t76.5 143t109.5 77.5t127.5 23.5zM590 1333q-23 0 -45 -15t-39 -49t-28 -90.5t-11 -138.5v-260q44 51 82 103.5t66.5 105.5t44.5 105t16 100q0 66 -20.5 102.5t-65.5 36.5z" />
    <glyph glyph-name="afii61352" unicode="&#x2116;" horiz-adv-x="1872" 
d="M1591 1053q0 103 -23.5 158t-74.5 55q-50 0 -74 -55t-24 -158v-54q0 -103 24 -158t74 -55q51 0 74.5 55t23.5 158v54zM1780 1026q0 -209 -74 -306t-213 -97q-140 0 -213.5 97t-73.5 306t73.5 306.5t213.5 97.5q139 0 213 -97.5t74 -306.5zM1241 541h506v-172h-506v172z
M856 0l-434 774q-6 11 -16.5 32.5t-21.5 43.5q-12 26 -26 55l-8 -6q1 -23 2 -45q1 -19 1.5 -38.5t0.5 -33.5v-782h-231v1405h231l434 -774q8 -14 19.5 -36t21.5 -43q11 -25 23 -52l6 6q-1 27 -1 50q-1 20 -1 39v28v782h234v-1405h-234z" />
    <glyph glyph-name="arrowupdnbse" unicode="&#x21a8;" horiz-adv-x="1024" 
d="M886 1053v-107l-265 108v-857l265 109v-107l-354 -403h-43l-355 403v107l265 -109v857l-265 -108v107l355 403h43zM887 -477h-752v175h752v-175z" />
    <glyph glyph-name="house" unicode="&#x2302;" horiz-adv-x="1229" 
d="M1075 635v-635h-921v635l460 518zM343 567v-384h543v384l-272 310z" />
    <glyph glyph-name="integralbt" unicode="&#x2321;" horiz-adv-x="1237" 
d="M719 1759q3 -225 7 -452.5t7 -441t6 -404t5 -342.5t3 -256.5t1 -145.5q0 -72 -31 -117t-84 -69.5t-123 -33.5t-148 -9v141q33 0 62 6t50.5 19.5t33.5 36t12 55.5q-5 308 -11 645q-3 144 -6 307.5t-6 339t-6 358t-6 363.5h234z" />
    <glyph glyph-name="integraltp" unicode="&#x2320;" horiz-adv-x="1237" 
d="M874 1618q-33 0 -61.5 -6t-50 -19.5t-33.5 -36t-12 -55.5q5 -308 11 -645q3 -144 5.5 -307.5t5.5 -339t6.5 -358t6.5 -363.5h-234q-4 225 -7.5 452.5t-6.5 441t-6 404t-5 342.5t-3 256.5t-1 145.5q0 72 31 117t84 69.5t123 33.5t147 9v-141z" />
    <glyph glyph-name="revlogicalnot" unicode="&#x2310;" horiz-adv-x="981" 
d="M922 717h-639v-334h-213v565h852v-231z" />
    <glyph glyph-name="uni2215" unicode="&#x2215;" horiz-adv-x="281" 
d="M-203 -25h-137l811 1455h135z" />
    </font>
</defs>
</svg>
